Ссылка на приватное зеркало нашего сайта всего за 1$. Внимание количество ограничено!!!

2 сезон

iTunes

1 сезон

1

2 сезон

2 сезон

iTunes

1 сезон

RePack

30

Новинка

ВАЖНО

ИГРА 18+

pack

RePack

MK11
pack

Забери бонус

RePack

jed

!!Акция!!

Alien_Rage

RePack

fifa19

RePack

Assassins Creed: Odyssey

RePack

NEED FOR SPEED™ PAYBACK

4 сезон

9 сезон

Бесстыжие 9 сезон

Все сериалы

все сериалы на PB.wtf

RePack

FAR CRY 5
  

Пикник у Висячей скалы / Picnic at Hanging Rock / Сезон: 1 / Серии: 1-6 из 6 (Лариса Кондрацки, Майкл Раймер, Аманда Бротчи) [2018, драма, мелодрама, детектив, WEBRip 720p] MVO [Jaskier] pb.wtf

Пикник у Висячей скалы через торрент pb.wtf

Размер: 7.77 GB | Добавлен: 2 года 4 мес. назад | Торрент скачан:20 раз
Скачать  

06-07-2018 05:45 Пикник у Висячей скалы Скачать торрент  

Пикник у Висячей скалы / Picnic at Hanging Rock
Год выпуска: 2018
Страна: Австралия
Жанр: драма, мелодрама, детектив
Продолжительность: ~00:52:00
Перевод: Профессиональный многоголосый | Jaskier
Субтитры: отсутствуют

Режиссер: Лариса Кондрацки, Майкл Раймер, Аманда Бротчи

rating

В ролях:

Натали Дормер, Лили Салливан, Лола Бесси, Харрисон Гилбертсон, Самара Уивинг, Руби Рис, Яэль Стоун, Джеймс Хоар

Описание:

Австралийский мистический телесериал, римейк одноимённого фильма 1975 года, созданного на основе книги современной австралийской писательницы Джоан Линдси. Действие начинается в 1900 году, в Валентинов день, когда группа воспитанниц женского пансиона под Мельбурном отправляется отдохнуть на природе. Они едут к Висячей скале - реально существующей горе Хангинг-Рок в нескольких десятках километрах к северу от Мельбурна. Это скалистый кряж вулканического происхождения высотой около 100 м ранее служил местным племенам как место для культовых обрядов, а после того, как фильм вышел на экраны, стал популярным объектом среди туристов. Директриса колледжа миссис Эппльярд (Натали Дормер) установила среди подопечных жёсткую дисциплину. Затянутые в корсеты воспитанницы живут по канонам викторианской эпохи и не имеют доступа к мужскому обществу. Поездка на пикник - это праздник в их унылой и скучной жизни. Устроившись в тени горы, девушки и их воспитательницы пробуют торт и в полдень большинство из них впадает в дрёму. Однако три девушки - Ирма, Миранда и Мэрион - уходят полазить по скалам, а сопровождающая их учительница мисс Макгро решает присмотреть за ними. Наступает вечер, но эти четверо не возвращаются...


Качество: WEBRip 720p
Формат: MKV

Видео: 1280x720 (16:9) | X264 | ~2613 kbps | 25.000 fps
Аудио#1: AC3, 48,0 КГц, 6 ch, 384 kbps - [RUS]
Аудио#2: AC3, 48,0 КГц, 6 ch, 384 kbps - [ENG]
скриншот  скриншот  скриншот  

Общее
Уникальный идентификатор : 93234532678000998116277954621399082098 (0x4624515D8A242431AE51C51A953BA472)
Полное имя : D:Picnic.at.Hanging.Rock Season 1 (WEBRip l 720p l Jaskier)\Picnic.at.Hanging.Rock.S01E01.WEBRip.720p.Jaskier.mkv
Формат : Matroska
Версия формата : Version 4 / Version 2
Размер файла : 1,23 Гбайт
Продолжительность : 52 м. 9 с.
Режим общего битрейта : Переменный
Общий поток : 3383 Кбит/сек
Дата кодирования : UTC 2018-07-01 14:49:10
Программа кодирования : mkvmerge v19.0.0 ('Brave Captain') 64-bit
Библиотека кодирования : libebml v1.3.5 + libmatroska v1.4.8

Видео
Идентификатор : 1
Формат : AVC
Формат/Информация : Advanced Video Codec
Профиль формата : High@L3.1
Параметр CABAC формата : Да
Параметр RefFrames формата : 5 кадров
Идентификатор кодека : V_MPEG4/ISO/AVC
Продолжительность : 52 м. 9 с.
Вид битрейта : Переменный
Битрейт : 2613 Кбит/сек
Максимальный битрейт : 4500 Кбит/сек
Ширина : 1280 пикселей
Высота : 720 пикселей
Соотношение сторон : 16:9
Режим частоты кадров : Постоянный
Частота кадров : 25,000 кадров/сек
Цветовое пространство : YUV
Субдискретизация насыщенности : 4:2:0
Битовая глубина : 8 бит
Тип развёртки : Прогрессивная
Бит/(Пиксели*Кадры) : 0.113
Размер потока : 975 Мбайт (77%)
Default : Да
Forced : Нет
Цветовой диапазон : Limited
Основные цвета : BT.709
Характеристики трансфера : BT.709
Коэффициенты матрицы : BT.709

Аудио #1
Идентификатор : 2
Формат : AC-3
Формат/Информация : Audio Coding 3
Расширение режима : CM (complete main)
Параметр Endianness формата : Big
Идентификатор кодека : A_AC3
Продолжительность : 52 м. 9 с.
Вид битрейта : Постоянный
Битрейт : 384 Кбит/сек
Каналы : 6 каналов
Расположение каналов : Front: L C R, Side: L R, LFE
Частота : 48,0 КГц
Частота кадров : 31,250 кадров/сек (1536 spf)
Метод сжатия : С потерями
Размер потока : 143 Мбайт (11%)
Язык : Russian
Default : Да
Forced : Нет

Аудио #2
Идентификатор : 3
Формат : AC-3
Формат/Информация : Audio Coding 3
Расширение режима : CM (complete main)
Параметр Endianness формата : Big
Идентификатор кодека : A_AC3
Продолжительность : 52 м. 9 с.
Вид битрейта : Постоянный
Битрейт : 384 Кбит/сек
Каналы : 6 каналов
Расположение каналов : Front: L C R, Side: L R, LFE
Частота : 48,0 КГц
Частота кадров : 31,250 кадров/сек (1536 spf)
Метод сжатия : С потерями
Размер потока : 143 Мбайт (11%)
Язык : English
Default : Нет
Forced : Нет

pb.wtf



Скачать Пикник у Висячей скалы через торрент https://img11.lostpic.net/2018/07/06/38e0c7ee270b2fcac213f3cdd3307a33.png Скачать фильм Пикник у Висячей скалы через торрент бесплантно в хорошем качестве Описание: Австралийский мистический телесериал, римейк одноимённого фильма 1975 года, созданного на основе книги современной австралийской ... 10 10 3
Торрент: Зарегистрирован [2018-07-06 05:45] · скачан: 20 раз
Статус: √ проверено
Размер: 7.77 GB
Как cкачать? Как скачать Пикник у Висячей скалы через торрент | qTorrent

% Раздел Тема Автор DL S | L
Зарубежные сериалы [ 8.41 GB ] Пикник у Висячей скалы / Picnic at Hanging Rock / Сезон: 1 / Серии: 1-6 из 6 [2018 Мело WEBRip 720p] MVO [Good People] bober100 Скачать
1 | 0
Зарубежные сериалы [ 3.77 GB ] Пикник у Висячей скалы / Picnic at Hanging Rock / Сезон: 1 / Серии: 1-6 из 6 [2018 WEB-DLRip] MVO [Good People] bober100 Скачать
1 | 0
Зарубежные сериалы [ 19.36 GB ] Пикник у Висячей скалы / Picnic at Hanging Rock / Сезон: 1 / Серии: 1-6 из 6 [2018 WEB-DL 1080p] MVO [TVShows] bober100 Скачать
1 | 0
Зарубежные сериалы [ 3.77 GB ] Пикник у Висячей скалы / Picnic at Hanging Rock / Сезон: 1 / Серии: 1-6 из 6 [2018 WEBRip] MVO [Jaskier] bober100 Скачать
1 | 0
Зарубежные сериалы [ 4.1 GB ] Пикник у Висячей скалы / Picnic at Hanging Rock / Сезон: 1 / Серии: 1-6 из 6 [2018 WEB-DLRip] MVO [NewStudio] bober100 Скачать
1 | 0

28-11-2019 20:33  

Отключить всю рекламу на сайте

    Дорогой пользователь! Огромная просьба, поблагодарите релизера, оцените раздачу и оставьте свои комментарий, если Вы скачали Пикник у Висячей скалы через торрент бесплатно! Внесите свою лепту в развитие PiratBit!
    Комментировать посты могут только пользователи прошедшие не сложную регистрацию
    Показать сообщения:    

    Пикник у Висячей скалы через торрент
    Скачать бесплатно Пикник у Висячей скалы
    Пикник у Висячей скалы скачать торрент
    Пикник у Висячей скалы смотреть онлайн
    Cкачать фильм Пикник у Висячей скалы бесплатно
    Пикник у Висячей скалы скачать торрент в хорошем качестве
    Пикник у Висячей скалы смотреть онлайн бесплатно в хорошем качестве


    Вы не можете начинать темы
    Вы не можете отвечать на сообщения
    Вы не можете редактировать свои сообщения
    Вы не можете удалять свои сообщения
    Вы не можете голосовать в опросах
    Вы не можете прикреплять файлы к сообщениям
    Вы можете скачивать файлы