Ссылка на приватное зеркало нашего сайта всего за 1$. Внимание количество ограничено!!!

2 сезон

iTunes

1 сезон

1

2 сезон

2 сезон

iTunes

1 сезон

RePack

30

Ultimate

ВАЖНО

ИГРА 18+

pack

RePack

MK11
pack

Забери бонус

RePack

jed

!!Акция!!

Alien_Rage

RePack

fifa19

RePack

Assassins Creed: Odyssey

RePack

NEED FOR SPEED™ PAYBACK

4 сезон

9 сезон

Бесстыжие 9 сезон

Все сериалы

все сериалы на PB.wtf

RePack

FAR CRY 5
  

Заложница / Taken / Сезон: 2 / Серии: 1-16 из 16 (Ромео Тироне, Лекси Александр, Алекс Грейвз) [2018, Боевик, триллер, WEBRip 720p] MVO [Jaskier] pb.wtf

Заложница через торрент pb.wtf

Размер: 24.23 GB | Добавлен: 2 года 4 мес. назад | Торрент скачан:6 раз
Скачать  

06-07-2018 06:00 Заложница Скачать торрент  

Заложница / TakenГод выпуска: 2018
Страна: США, Франция
Жанр: Боевик, триллер
Продолжительность: ~ 00:45:00
Перевод: Профессиональный многоголосый | Jaskier
Субтитры: Английские

Режиссер: Ромео Тироне, Лекси Александр, Алекс Грейвз

rating

В ролях:

Клайв Стэнден, Джеймс Хеберт, Симу Лью, Дженнифер Марсала, Мэттью Беннетт, Романо Орцари, Саад Сиддикуи, Джанет Рэкуэл, Дженнифер Билз, Моник Кёрнен

Описание:

Это история молодого Брайана Миллса, бывшего «зеленого берета», пережившего трагедию, которая полностью изменила его. Справляясь с последствиями травмы, Миллс становится оперативником ЦРУ, и новая работа пробуждает в нем особенные и невероятно опасные таланты.

Качество: WEBRip 720p
Формат: MKV
Видео кодек: H.264
Аудио кодек: AC3

Видео: 1280x720 (16:9) | X264 | ~4658 kbps | 23.976 fps
Аудио#1: AC3, 48,0 КГц, 6 ch, 384 kbps - [RUS]
Аудио#2: E-AC3, 48,0 КГц, 6 ch, 640 kbps - [ENG]
скриншот  скриншот  скриншот  

Общее
Уникальный идентификатор : 100252992188866683875183919292228871129 (0x4B6C0622B524A46F4E5994FA4A50A3D9)
Полное имя : D:\Taken Season 2 (WEBRip l 720p l Jaskier)\Taken.S02E01.WEBRip.720p.Jaskier.Rus.Eng.mkv
Формат : Matroska
Версия формата : Version 4 / Version 2
Размер файла : 1,71 Гбайт
Продолжительность : 43 м. 7 с.
Общий поток : 5684 Кбит/сек
Дата кодирования : UTC 2018-01-16 09:17:39
Программа кодирования : mkvmerge v19.0.0 ('Brave Captain') 64-bit
Библиотека кодирования : libebml v1.3.5 + libmatroska v1.4.8

Видео
Идентификатор : 1
Формат : AVC
Формат/Информация : Advanced Video Codec
Профиль формата : High@L4.1
Параметр CABAC формата : Да
Параметр RefFrames формата : 9 кадров
Идентификатор кодека : V_MPEG4/ISO/AVC
Продолжительность : 43 м. 7 с.
Битрейт : 4547 Кбит/сек
Ширина : 1280 пикселей
Высота : 720 пикселей
Соотношение сторон : 16:9
Режим частоты кадров : Постоянный
Частота кадров : 23,976 (24000/1001) кадра/сек
Цветовое пространство : YUV
Субдискретизация насыщенности : 4:2:0
Битовая глубина : 8 бит
Тип развёртки : Прогрессивная
Бит/(Пиксели*Кадры) : 0.206
Размер потока : 1,37 Гбайт (80%)
Библиотека кодирования : x264 core 148 r2744 b97ae06
Настройки программы : cabac=1 / ref=9 / deblock=1:-3:-3 / analyse=0x3:0x133 / me=umh / subme=10 / psy=1 / psy_rd=1.00:0.00 / mixed_ref=1 / me_range=48 / chroma_me=1 / trellis=2 / 8x8dct=1 / cqm=0 / deadzone=21,11 / fast_pskip=0 / chroma_qp_offset=-2 / threads=12 / lookahead_threads=2 / sliced_threads=0 / nr=0 / decimate=0 / interlaced=0 / bluray_compat=0 / constrained_intra=0 / bframes=9 / b_pyramid=0 / b_adapt=2 / b_bias=0 / direct=3 / weightb=1 / open_gop=0 / weightp=2 / keyint=240 / keyint_min=23 / scenecut=40 / intra_refresh=0 / rc_lookahead=60 / rc=crf / mbtree=0 / crf=17.0 / qcomp=0.60 / qpmin=10 / qpmax=51 / qpstep=4 / vbv_maxrate=62500 / vbv_bufsize=78125 / crf_max=0.0 / nal_hrd=none / filler=0 / ip_ratio=1.40 / pb_ratio=1.30 / aq=3:0.70
Default : Да
Forced : Нет

Аудио #1
Идентификатор : 2
Формат : AC-3
Формат/Информация : Audio Coding 3
Расширение режима : CM (complete main)
Параметр Endianness формата : Big
Идентификатор кодека : A_AC3
Продолжительность : 43 м. 7 с.
Вид битрейта : Постоянный
Битрейт : 384 Кбит/сек
Каналы : 6 каналов
Расположение каналов : Front: L C R, Side: L R, LFE
Частота : 48,0 КГц
Частота кадров : 31,250 кадров/сек (1536 spf)
Метод сжатия : С потерями
Размер потока : 118 Мбайт (7%)
Заголовок : Jaskier
Язык : Russian
Default : Да
Forced : Нет

Аудио #2
Идентификатор : 3
Формат : E-AC-3
Формат/Информация : Audio Coding 3
Параметр Endianness формата : Big
Идентификатор кодека : A_EAC3
Продолжительность : 43 м. 7 с.
Вид битрейта : Постоянный
Битрейт : 640 Кбит/сек
Каналы : 6 каналов
Расположение каналов : Front: L C R, Side: L R, LFE
Частота : 48,0 КГц
Частота кадров : 187,500 кадров/сек (256 spf)
Метод сжатия : С потерями
Размер потока : 197 Мбайт (11%)
Язык : English
Default : Нет
Forced : Нет

Текст
Идентификатор : 4
Формат : UTF-8
Идентификатор кодека : S_TEXT/UTF8
Идентификатор кодека/Информация : UTF-8 Plain Text
Язык : English
Default : Нет
Forced : Нет

Меню
00:00:00.000 : en:Scene 1
00:05:36.000 : en:Scene 2
00:05:44.000 : en:Scene 3
00:08:52.000 : en:Scene 4
00:09:48.000 : en:Scene 5
00:11:19.000 : en:Scene 6
00:13:34.000 : en:Scene 7
00:15:17.000 : en:Scene 8
00:17:44.000 : en:Scene 9
00:20:15.000 : en:Scene 10
00:22:05.000 : en:Scene 11
00:22:57.000 : en:Scene 12
00:24:25.000 : en:Scene 13
00:25:30.000 : en:Scene 14
00:27:46.000 : en:Scene 15
00:30:18.000 : en:Scene 16
00:31:59.000 : en:Scene 17
00:34:54.000 : en:Scene 18
00:36:58.000 : en:Scene 19
00:37:29.000 : en:Scene 20
00:39:43.000 : en:Scene 21
00:42:28.000 : en:Scene 22

pb.wtf



Скачать Заложница через торрент http://i100.fastpic.ru/big/2018/0116/fe/bcf65afd8cbede130face971d5bda2fe.jpg Скачать фильм Заложница через торрент бесплантно в хорошем качестве Описание: Это история молодого Брайана Миллса, бывшего «зеленого берета», пережившего трагедию, которая полностью изменила его. Справляясь ... 8 10 4
Info! Золотая раздача, скачанное не засчитывается.
Торрент: Зарегистрирован [2018-07-06 06:00] · скачан: 6 раз
Статус: √ проверено
Размер: 24.23 GB
Как cкачать? Как скачать Заложница через торрент | qTorrent

% Раздел Тема Автор DL S | L
Зарубежные сериалы [ 28.71 GB ] Заложница / Taken / Сезон: 2 / Серии: 1-16 из 16 [2018 WEB-DL 1080p] MVO [LostFilm] bober100 Скачать
1 | 0
Зарубежные сериалы [ 23 GB ] Заложница / Taken / Сезон: 2 / Серии: 1-16 из 16 [2018 WEB-DL 720p] MVO [NewStudio] bober100 Скачать
1 | 0
Зарубежные сериалы [ 8.6 GB ] Заложница / Taken / Сезон: 2 / Серии: 1-16 из 16 [2018 WEB-DLRip] MVO [NewStudio] bober100 Скачать
1 | 0
Зарубежные сериалы [ 7.72 GB ] Заложница / Taken / Сезон: 2 / Серии 1-16 из 16 [2017 WEBRip WEB-DLRip] MVO [BaibaKo] GEKADOL Скачать
1 | 0
Зарубежные сериалы [ 25.09 GB ] Заложница / Taken / Сезон: 2 / Серии 1-16 из 16 [2017 WEBRip 720p WEB-DL 720p] MVO [BaibaKo] GEKADOL Скачать
1 | 0
Зарубежные сериалы [ 9.16 GB ] Заложница / Taken / Сезон: 2 / Серии: 1-16 из 16 [2018 WEBRip WEB-DLRip] MVO [BaibaKo] bober100 Скачать
1 | 0
Зарубежные сериалы [ 38.87 GB ] Заложница / Taken / Сезон: 2 / Серии: 1-16 из 16 [2018 WEBRip 1080p] MVO [Jaskier] bober100 Скачать
1 | 0

28-11-2019 20:33  

Отключить всю рекламу на сайте

    Дорогой пользователь! Огромная просьба, поблагодарите релизера, оцените раздачу и оставьте свои комментарий, если Вы скачали Заложница через торрент бесплатно! Внесите свою лепту в развитие PiratBit!
    Комментировать посты могут только пользователи прошедшие не сложную регистрацию
    Показать сообщения:    

    Заложница через торрент
    Скачать бесплатно Заложница
    Заложница скачать торрент
    Заложница смотреть онлайн
    Cкачать фильм Заложница бесплатно
    Заложница скачать торрент в хорошем качестве
    Заложница смотреть онлайн бесплатно в хорошем качестве


    Вы не можете начинать темы
    Вы не можете отвечать на сообщения
    Вы не можете редактировать свои сообщения
    Вы не можете удалять свои сообщения
    Вы не можете голосовать в опросах
    Вы не можете прикреплять файлы к сообщениям
    Вы можете скачивать файлы