Ссылка на приватное зеркало нашего сайта всего за 1$. Внимание количество ограничено!!!

2 сезон

iTunes

1 сезон

1

2 сезон

2 сезон

iTunes

1 сезон

RePack

30

Ultimate

ВАЖНО

ИГРА 18+

pack

RePack

MK11
pack

Забери бонус

RePack

jed

!!Акция!!

Alien_Rage

RePack

fifa19

RePack

Assassins Creed: Odyssey

RePack

NEED FOR SPEED™ PAYBACK

4 сезон

9 сезон

Бесстыжие 9 сезон

Все сериалы

все сериалы на PB.wtf

RePack

FAR CRY 5
  

Far Cry 5: У врат Эдема / Far Cry 5: Inside Eden's Gate (Бэрри Баттлс) [2018, короткометражка, триллер, драма, WEB-DLRip 1080p, HEVC] MVO pb.wtf

Far Cry 5: У врат Эдема через торрент pb.wtf

Размер: 480 MB | Добавлен: 2 года 4 мес. назад | Торрент скачан:348 раз
Скачать  

06-07-2018 06:47 Far Cry 5: У врат Эдема Скачать торрент  

Far Cry 5: У врат Эдема / Far Cry 5: Inside Eden's Gate

Год выпуска: 2018
Страна: США
Жанр: короткометражка, триллер, драма, детектив
Продолжительность: 00:30:54
Перевод: Любительский [многоголосый] Без рекламы!
Режиссер: Бэрри Баттлс
В ролях:

Грег Брайк (The Father), Кайл Галлнер (Alex), Alexis German (Hannah), Эрин Манкер (Sara), Джарретт Уорли (Mark), Адам Дорси (Jacob Seed), Роб Эворс (John Seed), Courtney Carl (Linny), Шелби Мур (Jenny Price), Mackenzie Lawrén (Faith Seed), Anna Lee Davis (Mary May), Travis Vermulm (Nick Rye)
Описание:
Короткометражный фильм является предысторией игры Far Cry. Слухи о фанатическом культе, названном «Проект в воротах Эдема», привлекают троих блогеров в отдаленный округ Хоуп, штат Монтана. Следуя по приметам пропавших местных жителей и других странных событий, они проникают внутрь мистического культа. Потрясенные тем, что они раскрывают, они рискуют всем, чтобы предупредить мир.
Рейтинг:
rating
Качество: WEB-DLRip 1080p
Формат: MKV
Видео: H.265/HEVC, 1920x816 (2.35:1), 2010 kbps, 23,976 fps, 0,054 bpp
Аудио: AAC LC / 2.0 / 48 kHz / 160 kbps /

- H.265/HEVC (High Efficiency Video Coding) - это новый стандарт кодирования видео.
- Стандарт H.265/HEVC является логическим продолжением стандарта H.264/AVC (Advanced Video Coding), и характеризуется более эффективными алгоритмами сжатия, а также поддержкой высокого разрешения вплоть до 8K UHD (8192x4320). Первая версия стандарта H.265 была опубликована в начале 2013 года.
- Рипы в фомате HEVC поддерживается не всеми аппаратными проигрывателями.
- Для корректного воспроизведения может потребоваться обновление ПО.
- Владельцам несовместимого железа просьба не беспокоить, есть альтернативные релизы.
General
Unique ID : 247006825642831866264459828225928049186 (0xB9D3C8C128709127B8DA06A53783B222)
Complete name : F:\farcry5.u.vrat.edema.2018.1080p.webdl.rip.hevc.x265.mkv
Format : Matroska
Format version : Version 4 / Version 2
File size : 480 MiB
Duration : 30 min
Overall bit rate : 2 171 kb/s
Encoded date : UTC 2018-07-05 13:49:23
Writing application : mkvmerge v7.5.0 ('Glass Culture') 32bit built on Jan 4 2015 16:37:25
Writing library : libebml v1.3.1 + libmatroska v1.4.2

Video
ID : 1
Format : HEVC
Format/Info : High Efficiency Video Coding
Format profile : Main@L4@Main
Codec ID : V_MPEGH/ISO/HEVC
Duration : 30 min
Bit rate : 2 010 kb/s
Width : 1 920 pixels
Height : 816 pixels
Display aspect ratio : 2.35:1
Frame rate mode : Variable
Frame rate : 23.976 FPS
Original frame rate : 25.000 FPS
Color space : YUV
Chroma subsampling : 4:2:0
Bit depth : 8 bits
Bits/(Pixel*Frame) : 0.054
Stream size : 444 MiB (93%)
Writing library : x265 2.8+11-df5bd3be9b11:[Linux][GCC 5.4.0][64 bit][noasm] 8bit
Encoding settings : cpuid=0 / frame-threads=3 / wpp / no-pmode / no-pme / no-psnr / no-ssim / log-level=2 / input-csp=1 / input-res=1920x816 / interlace=0 / total-frames=0 / level-idc=0 / high-tier=1 / uhd-bd=0 / ref=3 / no-allow-non-conformance / no-repeat-headers / annexb / no-aud / no-hrd / info / hash=0 / no-temporal-layers / open-gop / min-keyint=25 / keyint=250 / gop-lookahead=0 / bframes=4 / b-adapt=2 / b-pyramid / bframe-bias=0 / rc-lookahead=20 / lookahead-slices=5 / scenecut=40 / radl=0 / no-intra-refresh / ctu=64 / min-cu-size=8 / no-rect / no-amp / max-tu-size=32 / tu-inter-depth=1 / tu-intra-depth=1 / limit-tu=0 / rdoq-level=0 / dynamic-rd=0.00 / no-ssim-rd / signhide / no-tskip / nr-intra=0 / nr-inter=0 / no-constrained-intra / strong-intra-smoothing / max-merge=2 / limit-refs=3 / no-limit-modes / me=1 / subme=2 / merange=57 / temporal-mvp / weightp / no-weightb / no-analyze-src-pics / deblock=0:0 / sao / no-sao-non-deblock / rd=3 / no-early-skip / rskip / no-fast-intra / no-tskip-fast / no-cu-lossless / no-b-intra / no-splitrd-skip / rdpenalty=0 / psy-rd=2.00 / psy-rdoq=0.00 / no-rd-refine / no-lossless / cbqpoffs=0 / crqpoffs=0 / rc=abr / bitrate=2153 / qcomp=0.60 / qpstep=4 / stats-write=0 / stats-read=0 / ipratio=1.40 / pbratio=1.30 / aq-mode=1 / aq-strength=1.00 / cutree / zone-count=0 / no-strict-cbr / qg-size=32 / no-rc-grain / qpmax=69 / qpmin=0 / no-const-vbv / sar=1 / overscan=0 / videoformat=5 / range=0 / colorprim=2 / transfer=2 / colormatrix=2 / chromaloc=0 / display-window=0 / max-cll=0,0 / min-luma=0 / max-luma=255 / log2-max-poc-lsb=8 / vui-timing-info / vui-hrd-info / slices=1 / no-opt-qp-pps / no-opt-ref-list-length-pps / no-multi-pass-opt-rps / scenecut-bias=0.05 / no-opt-cu-delta-qp / no-aq-motion / no-hdr / no-hdr-opt / no-dhdr10-opt / no-idr-recovery-sei / analysis-reuse-level=5 / scale-factor=0 / refine-intra=0 / refine-inter=0 / refine-mv=0 / no-limit-sao / ctu-info=0 / no-lowpass-dct / refine-mv-type=0 / copy-pic=1 / max-ausize-factor=1.0 / no-dynamic-refine / no-single-sei
Default : Yes
Forced : No

Audio
ID : 2
Format : AAC
Format/Info : Advanced Audio Codec
Format profile : LC
Codec ID : A_AAC
Duration : 30 min
Bit rate : 160 kb/s
Channel(s) : 2 channels
Channel positions : Front: L R
Sampling rate : 48.0 kHz
Frame rate : 46.875 FPS (1024 spf)
Compression mode : Lossy
Delay relative to video : 9 ms
Stream size : 35.3 MiB (7%)
Default : Yes
Forced : No
pb.wtf



Скачать Far Cry 5: У врат Эдема через торрент http://i105.fastpic.ru/big/2018/0706/6b/aec60a0b61463f3479871202e3cd076b.jpg Скачать фильм Far Cry 5: У врат Эдема через торрент бесплантно в хорошем качестве Описание: Короткометражный фильм является предысторией игры Far Cry. Слухи о фанатическом культе, названном «Проект в воротах Эдема», ... 9 10 9
Торрент: Зарегистрирован [2018-07-06 06:47] · скачан: 348 раз
Статус: √ проверено
Размер: 480 MB
Как cкачать? Как скачать Far Cry 5: У врат Эдема через торрент | qTorrent

28-11-2019 20:33  

Отключить всю рекламу на сайте

06-07-2018 10:31 Far Cry 5: У врат Эдема Скачать торрент  

А это ещё что?
Все уже знают что это за "шедевр"pb.wtf



06-07-2018 14:14 Far Cry 5: У врат Эдема Скачать торрент  

pb.wtf



    Дорогой пользователь! Огромная просьба, поблагодарите релизера, оцените раздачу и оставьте свои комментарий, если Вы скачали Far Cry 5: У врат Эдема через торрент бесплатно! Внесите свою лепту в развитие PiratBit!
    Комментировать посты могут только пользователи прошедшие не сложную регистрацию
    Показать сообщения:    

    Far Cry 5: У врат Эдема через торрент
    Скачать бесплатно Far Cry 5: У врат Эдема
    Far Cry 5: У врат Эдема скачать торрент
    Far Cry 5: У врат Эдема смотреть онлайн
    Cкачать фильм Far Cry 5: У врат Эдема бесплатно
    Far Cry 5: У врат Эдема скачать торрент в хорошем качестве
    Far Cry 5: У врат Эдема смотреть онлайн бесплатно в хорошем качестве


    Вы не можете начинать темы
    Вы не можете отвечать на сообщения
    Вы не можете редактировать свои сообщения
    Вы не можете удалять свои сообщения
    Вы не можете голосовать в опросах
    Вы не можете прикреплять файлы к сообщениям
    Вы можете скачивать файлы