Ссылка на приватное зеркало всего за 1$. Внимание количество ограничено!!!

OK

1+1

iTunes

мы

OK

1

WEB-DLRip

Джокер

Пифагор

Ведьмак / The Witcher сериал

iTunes

ПШазам

ОК

Оно 2

iTunes

30
pack

Вам бонус

ВАЖНО

!!Акция!!

Alien_RageХит недели

RePack

Resident Evil 21

ИГРА 18+

pack

RePack

jed

RePack

fifa19

RePack

Assassins Creed: Odyssey

RePack

NEED FOR SPEED™ PAYBACK

4 сезон

9 сезон

Бесстыжие 9 сезон

Все сериалы

все сериалы на PB.wtf

RePack

FAR CRY 5
  

Воспоминания / Recall (Майкл Джеймс Риган) [2018, Триллер, драма, криминал, WEB-DL 720p] MVO ["Синема УС"] pb.wtf

Воспоминания через торрент pb.wtf

Размер: 2.51 GB | Добавлен: 1 год 6 мес. назад | Торрент скачан:31 раз
Скачать  

06-07-2018 06:56 Воспоминания Скачать торрент  

Воспоминания / RecallГод выпуска: 2018
Страна: Канада
Жанр: Триллер, драма, криминал
Продолжительность: 01:14:48
Перевод: Любительский (многоголосый) | "Синема УС"
Субтитры: отсутствуют

Режиссер: Майкл Джеймс Риган

rating

В ролях:

Майкл Джеймс Риган, Томми Джеймс Мерфи, Луис Ди Бьянко, Стефано Коласитти, Хуан Карлос Велис, Катрина Исберг, Дэнни Бруззи, Юджин Кларк, Ронни Роу, Бренди Грин

Описание:

При появлении шанса на новую жизнь молодой человек, переживающий огромное личное горе, и его подсевший на кокаин сводный брат сталкиваются с местной мафией. Но что, вероятно, еще страшнее - им приходится посмотреть в глаза своему прошлому.

Качество: WEB-DL 720p
Формат: MKV

Видео: h.264, 4331 kb/s, 1280x536
Аудио#1: Русский, (AC3, 2 ch, 384 Кбит/с)
скриншот  скриншот  скриншот  

Общее
Уникальный идентификатор : 248889351941932613311450390270879074270 (0xBB3E58779085E83ABF7E0D05C5A607DE)
Полное имя : D:\Recall.2018.P.WEB-DL.72Op_KOSHARA.mkv
Формат : Matroska
Версия формата : Version 2
Размер файла : 2,51 Гбайт
Продолжительность : 1 ч. 14 м.
Режим общего битрейта : Переменный
Общий поток : 4794 Кбит/сек
Дата кодирования : UTC 2018-07-05 16:37:58
Программа кодирования : mkvmerge v8.3.0 ('Over the Horizon') 64bit
Библиотека кодирования : libebml v1.3.1 + libmatroska v1.4.2

Видео
Идентификатор : 1
Формат : AVC
Формат/Информация : Advanced Video Codec
Профиль формата : High@L4.1
Параметр CABAC формата : Да
Параметр RefFrames формата : 4 кадра
Идентификатор кодека : V_MPEG4/ISO/AVC
Продолжительность : 1 ч. 14 м.
Вид битрейта : Переменный
Битрейт : 4331 Кбит/сек
Максимальный битрейт : 5000 Кбит/сек
Ширина : 1280 пикселей
Высота : 536 пикселей
Соотношение сторон : 2,40:1
Режим частоты кадров : Постоянный
Частота кадров : 23,976 (24000/1001) кадра/сек
Стандарт вещания : Component
Цветовое пространство : YUV
Субдискретизация насыщенности : 4:2:0
Битовая глубина : 8 бит
Тип развёртки : Прогрессивная
Бит/(Пиксели*Кадры) : 0.262
Размер потока : 2,25 Гбайт (90%)
Default : Да
Forced : Нет
Цветовой диапазон : Limited
Основные цвета : BT.709
Характеристики трансфера : BT.709
Коэффициенты матрицы : BT.709

Аудио
Идентификатор : 2
Формат : AC-3
Формат/Информация : Audio Coding 3
Расширение режима : CM (complete main)
Параметр Endianness формата : Big
Идентификатор кодека : A_AC3
Продолжительность : 1 ч. 14 м.
Вид битрейта : Постоянный
Битрейт : 384 Кбит/сек
Каналы : 2 канала
Расположение каналов : Front: L R
Частота : 48,0 КГц
Частота кадров : 31,250 кадров/сек (1536 spf)
Метод сжатия : С потерями
Размер потока : 205 Мбайт (8%)
Default : Да
Forced : Нет

pb.wtf



Скачать Воспоминания через торрент https://img11.lostpic.net/2018/07/06/45758cbc84c3aaa9d41fa1e6a818cde0.jpg Скачать фильм Воспоминания через торрент бесплантно в хорошем качестве Описание: При появлении шанса на новую жизнь молодой человек, переживающий огромное личное горе, и его подсевший на кокаин сводный брат ... 10 10 4
Торрент: Зарегистрирован [2018-07-06 06:56] · скачан: 31 раз
Статус: T временная
Размер: 2.51 GB
Как cкачать? Как скачать Воспоминания через торрент | qTorrent

% Раздел Тема Автор DL S | L
T Фильмы (мультфильмы) cо спонсором показа (Новинки AVI/MKV) [ 1.36 GB ] Воспоминания / Recall [2018 WEB-DLRip] MVO ["Синема УС"] bober100 Скачать
1 | 0

28-11-2019 20:33  

Отключить всю рекламу на сайте

    Дорогой пользователь! Огромная просьба, поблагодарите релизера, оцените раздачу и оставьте свои комментарий, если Вы скачали Воспоминания через торрент бесплатно! Внесите свою лепту в развитие PiratBit!
    Комментировать посты могут только пользователи прошедшие не сложную регистрацию
    Показать сообщения:    

    Воспоминания через торрент
    Скачать бесплатно Воспоминания
    Воспоминания скачать торрент
    Воспоминания смотреть онлайн
    Cкачать фильм Воспоминания бесплатно
    Воспоминания скачать торрент в хорошем качестве
    Воспоминания смотреть онлайн бесплатно в хорошем качестве


    Вы не можете начинать темы
    Вы не можете отвечать на сообщения
    Вы не можете редактировать свои сообщения
    Вы не можете удалять свои сообщения
    Вы не можете голосовать в опросах
    Вы не можете прикреплять файлы к сообщениям
    Вы можете скачивать файлы