новый адрес
Мега распродажа FORZA HORIZON 4 ULTIMATE+ВСЕ DLC+ОНЛАЙН всего за 499р. 349 руб. (супер цена). Внимание количество ограничено!!!

iTunes

1+1

iTunes

мы

iTunes

1

iTunes

Чернобыль

iTunes

Ральф против интернета

Лицензия

ПШазам

Лицензия

Игра престолов

Лицензия

30
pack

ВАЖНО

!!Акция!!

Alien_RageХит недели

RePack

Resident Evil 21

ИГРА 18+

pack

RePack

Metro:Exodus

!!Акция!!

Alien_Rage

RePack

fifa19

RePack

Assassins Creed: Odyssey

RePack

NEED FOR SPEED™ PAYBACK

3 сезон

9 сезон

Бесстыжие 9 сезон

Все сериалы

все сериалы на PB.wtf

RePack

FAR CRY 5
Ребята, катастрофически не хватает 1900р. для оплаты серверов за Октябрь (всвязи с блокировками трафик упал в 3 раза), 1-2р., выручайте.
  

Двадцать дней без войны (Алексей Герман) [1976 г., Драма, военный, DVDRip] pb.wtf

Двадцать дней без войны через торрент pb.wtf

Размер: 1.37 GB | Добавлен: 1 год 4 мес. назад | Торрент скачан:7 раз
Скачать  

06-07-2018 15:36 Двадцать дней без войны Скачать торрент  

Двадцать дней без войны
Год выпуска: 1976
Страна: СССР
Жанр: Драма, военный
Продолжительность: 01:37:17
Субтитры: Отсутствуют

Режиссер: Алексей Герман

rating


В ролях: Юрий Никулин, Людмила Гурченко, Алексей Петренко, Ангелина Степанова, Екатерина Васильева, Николай Гринько, Люсьена Овчинникова, Михаил Кононов, Лия Ахеджакова

Описание: Конец 1942 года. Фронтовой журналист Лопатин приезжает в Ташкент в 20-дневный отпуск за Сталинград. Ему, оглушенному и ослепленному огнем, мирная жизнь кажется странной и непривычной: размокшие саманные домики, снег пополам с грязью, хлебные карточки, судорожно зажатые в кулаке, сводки от Советского Информбюро, убогий быт, похоронки и... театры, которые продолжали работу в тылу. За 20 дней отпуска без войны Лопатин успевает побывать на Ташкентской киностудии, где снимается фильм по его военным очеркам, встретить новый 1943 год в мирной компании, и пережить яркую любовь...

Качество: DVDRip
Формат: AVI
Видео кодек: DivX
Аудио кодек: AC3
Видео: XviD, 720x400 , 25 fps, 1558 Kbps
Аудио#1: AC3 , 6 ch , 48 kHz , 448 kbps
Общее
Полное имя : D:Dvadcat.dney.bez.voyni.1976.DivX.DVDRip..avi
Формат : AVI
Формат/Информация : Audio Video Interleave
Размер файла : 1,37 Гбайт
Продолжительность : 1 ч. 37 м.
Общий поток : 2013 Кбит/сек
Программа кодирования : VirtualDubMod 1.5.4.1 (build 2178/release)
Библиотека кодирования : VirtualDubMod build 2178/release

Видео
Идентификатор : 0
Формат : MPEG-4 Visual
Параметр BVOP формата : 1
Параметр QPel формата : Нет
Параметр GMC формата : Без точки перехода
Параметр матрицы формата : Default (H.263)
Режим смешивания : Сжатый битовый поток
Идентификатор кодека : DX50
Идентификатор кодека/Подсказка : DivX 5
Продолжительность : 1 ч. 37 м.
Битрейт : 1558 Кбит/сек
Ширина : 720 пикселей
Высота : 400 пикселей
Соотношение сторон : 16:9
Частота кадров : 25,000 кадров/сек
Цветовое пространство : YUV
Субдискретизация насыщенности : 4:2:0
Битовая глубина : 8 бит
Тип развёртки : Прогрессивная
Метод сжатия : С потерями
Бит/(Пиксели*Кадры) : 0.216
Размер потока : 1,06 Гбайт (77%)
Библиотека кодирования : DivX 6.8.2 (UTC 2008-05-17)

Аудио
Идентификатор : 1
Формат : AC-3
Формат/Информация : Audio Coding 3
Расширение режима : CM (complete main)
Параметр Endianness формата : Big
Идентификатор кодека : 2000
Продолжительность : 1 ч. 37 м.
Вид битрейта : Постоянный
Битрейт : 448 Кбит/сек
Каналы : 6 каналов
Расположение каналов : Front: L C R, Side: L R, LFE
Частота : 48,0 КГц
Битовая глубина : 16 бит
Метод сжатия : С потерями
Размер потока : 312 Мбайт (22%)
Выравнивание : Разделение по промежуткам
Продолжительность промежутка : 96 мс. (2,40 видеокадра)
Время предзагрузки промежутка : 96 мс.
Язык : Russian

pb.wtf



Скачать Двадцать дней без войны через торрент https://d.radikal.ru/d00/1807/64/fa98d6f47271.jpg Скачать фильм Двадцать дней без войны через торрент бесплантно в хорошем качестве Описание: Конец 1942 года. Фронтовой журналист Лопатин приезжает в Ташкент в 20-дневный отпуск за Сталинград. Ему, оглушенному и ... 10 10 5
Info! Золотая раздача, скачанное не засчитывается.
Торрент: Зарегистрирован [2018-07-06 15:36] · скачан: 7 раз
Статус: √ проверено
Размер: 1.37 GB
Как cкачать? Как скачать Двадцать дней без войны через торрент | qTorrent


>> Регистрируемся здесь <<






Отзывы и комментарии о схеме читаем и пишем здесь: ---> Отзывы и комментарии о схеме

Новые благодарочки в телеграм довольных пользователей:
скриншот   скриншот   скриншот   скриншот   скриншот
    Дорогой пользователь! Огромная просьба, поблагодарите релизера, оцените раздачу и оставьте свои комментарий, если Вы скачали Двадцать дней без войны через торрент бесплатно! Внесите свою лепту в развитие PiratBit!
    Комментировать посты могут только пользователи прошедшие не сложную регистрацию
    Показать сообщения:    

    Двадцать дней без войны через торрент
    Скачать бесплатно Двадцать дней без войны
    Двадцать дней без войны скачать торрент
    Двадцать дней без войны смотреть онлайн
    Cкачать фильм Двадцать дней без войны бесплатно
    Двадцать дней без войны скачать торрент в хорошем качестве
    Двадцать дней без войны смотреть онлайн бесплатно в хорошем качестве


    Вы не можете начинать темы
    Вы не можете отвечать на сообщения
    Вы не можете редактировать свои сообщения
    Вы не можете удалять свои сообщения
    Вы не можете голосовать в опросах
    Вы не можете прикреплять файлы к сообщениям
    Вы можете скачивать файлы