Ссылка на приватное зеркало всего за 1$. Внимание количество ограничено!!!

iTunes

1+1

iTunes

мы

MV0

1

WEB-DLRip

Джокер

Пифагор

Ведьмак / The Witcher сериал

iTunes

ПШазам

iTunes

Оно 2

iTunes

30
pack

Вам бонус

ВАЖНО

!!Акция!!

Alien_RageХит недели

RePack

Resident Evil 21

ИГРА 18+

pack

RePack

jed

!!Акция!!

Alien_Rage

RePack

fifa19

RePack

Assassins Creed: Odyssey

RePack

NEED FOR SPEED™ PAYBACK

4 сезон

9 сезон

Бесстыжие 9 сезон

Все сериалы

все сериалы на PB.wtf

RePack

FAR CRY 5
  

Небеса обетованные (Эльдар Рязанов) [1991 г., Kомедия, драма, DVDRip] pb.wtf

Небеса обетованные через торрент pb.wtf

Размер: 1.37 GB | Добавлен: 1 год 7 мес. назад | Торрент скачан:21 раз
Скачать  

06-07-2018 15:54 Небеса обетованные Скачать торрент  

Небеса обетованные
Год выпуска: 1991
Страна: СССР
Жанр: Kомедия, драма
Продолжительность: 01:57:34
Субтитры: Отсутствуют

Режиссер: Эльдар Рязанов

rating

В ролях: Лия Ахеджакова, Ольга Волкова, Валентин Гафт, Леонид Броневой, Олег Басилашвили, Светлана Немоляева, Наталья Гундарева, Роман Карцев, Вячеслав Невинный, Нина Русланова, Александр Панкратов-Черный

Описание: Трагикомическая история о бездомных людях, живущих на городской свалке, об их судьбах, радостях и горестях. Они борются за место под солнцем с городскими властями, отстаивая свое право жить на земле не страшась даже танков, посланных чиновниками...

Качество: DVDRip
Формат: AVI
Видео кодек: DivX
Аудио кодек: MP3
Видео: DivX, 656x464 , 25.0fps, 1526 Kbps
Аудио#1: MP3 , 2 ch , 48 kHz , 128 kbps
Общее
Полное имя : D:Nebesa_obetovannie_DVDRip_1.36GB\01_Nebesa_obetovannie_DVDRip_1.36GB.avi
Формат : AVI
Формат/Информация : Audio Video Interleave
Размер файла : 682 Мбайт
Продолжительность : 57 м.
Общий поток : 1664 Кбит/сек
Программа кодирования : VirtualDubModRus 1.5.10.2 (build 2542/release)
Библиотека кодирования : VirtualDubMod build 2542/release

Видео
Идентификатор : 0
Формат : MPEG-4 Visual
Параметр BVOP формата : 1
Параметр QPel формата : Нет
Параметр GMC формата : Без точки перехода
Параметр матрицы формата : Default (H.263)
Режим смешивания : Сжатый битовый поток
Идентификатор кодека : DX50
Идентификатор кодека/Подсказка : DivX 5
Продолжительность : 57 м.
Битрейт : 1526 Кбит/сек
Ширина : 656 пикселей
Высота : 464 пикселя
Соотношение сторон : 1,414
Частота кадров : 25,000 кадров/сек
Цветовое пространство : YUV
Субдискретизация насыщенности : 4:2:0
Битовая глубина : 8 бит
Тип развёртки : Прогрессивная
Метод сжатия : С потерями
Бит/(Пиксели*Кадры) : 0.201
Размер потока : 625 Мбайт (92%)
Библиотека кодирования : DivX 6.8.3-6.8.4 (UTC 2008-06-07)

Аудио
Идентификатор : 1
Формат : MPEG Audio
Версия формата : Version 1
Профиль формата : Layer 3
Режим : Joint stereo
Идентификатор кодека : 55
Идентификатор кодека/Подсказка : MP3
Продолжительность : 57 м.
Вид битрейта : Постоянный
Битрейт : 128 Кбит/сек
Каналы : 2 канала
Частота : 48,0 КГц
Метод сжатия : С потерями
Размер потока : 52,4 Мбайт (8%)
Выравнивание : Соединение по промежуткам
Продолжительность промежутка : 40 мс. (1,00 видеокадр)
Время предзагрузки промежутка : 504 мс.
Библиотека кодирования : LAME3.97
Настройки программы : -m j -V 4 -q 1 -b 128

pb.wtf



Скачать Небеса обетованные через торрент https://a.radikal.ru/a19/1807/93/a451ff9485b0.jpg Скачать фильм Небеса обетованные через торрент бесплантно в хорошем качестве Описание: Трагикомическая история о бездомных людях, живущих на городской свалке, об их судьбах, радостях и горестях. Они борются за место ... 10 10 3
Торрент: Зарегистрирован [2018-07-06 15:54] · скачан: 21 раз
Статус: √ проверено
Размер: 1.37 GB
Как cкачать? Как скачать Небеса обетованные через торрент | qTorrent

28-11-2019 20:33  

Отключить всю рекламу на сайте

    Дорогой пользователь! Огромная просьба, поблагодарите релизера, оцените раздачу и оставьте свои комментарий, если Вы скачали Небеса обетованные через торрент бесплатно! Внесите свою лепту в развитие PiratBit!
    Комментировать посты могут только пользователи прошедшие не сложную регистрацию
    Показать сообщения:    

    Небеса обетованные через торрент
    Скачать бесплатно Небеса обетованные
    Небеса обетованные скачать торрент
    Небеса обетованные смотреть онлайн
    Cкачать фильм Небеса обетованные бесплатно
    Небеса обетованные скачать торрент в хорошем качестве
    Небеса обетованные смотреть онлайн бесплатно в хорошем качестве


    Вы не можете начинать темы
    Вы не можете отвечать на сообщения
    Вы не можете редактировать свои сообщения
    Вы не можете удалять свои сообщения
    Вы не можете голосовать в опросах
    Вы не можете прикреплять файлы к сообщениям
    Вы можете скачивать файлы