Ссылка на приватное зеркало всего за 1$. Внимание количество ограничено!!!

OK

1+1

iTunes

мы

OK

1

WEB-DLRip

Джокер

Пифагор

Ведьмак / The Witcher сериал

iTunes

ПШазам

ОК

Оно 2

iTunes

30
pack

Вам бонус

ВАЖНО

!!Акция!!

Alien_RageХит недели

RePack

Resident Evil 21

ИГРА 18+

pack

RePack

jed

RePack

fifa19

RePack

Assassins Creed: Odyssey

RePack

NEED FOR SPEED™ PAYBACK

4 сезон

9 сезон

Бесстыжие 9 сезон

Все сериалы

все сериалы на PB.wtf

RePack

FAR CRY 5
  

Фото убийцы / Killer Photo / Watch Your Back. (Джейсон Фурукава) [2015, Драма, WEB-DLRip] MVO ["Синема УС"] pb.wtf

Фото убийцы через торрент pb.wtf

Размер: 3.09 GB | Добавлен: 1 год 6 мес. назад | Торрент скачан:10 раз
Скачать  

07-07-2018 06:54 Фото убийцы Скачать торрент  

Фото убийцы / Killer Photo / Watch Your BackГод выпуска: 2015
Страна: США
Жанр: Драма
Продолжительность: 01:31:01
Перевод: Любительский (многоголосый) | "Синема УС"
Субтитры: отсутствуют

Режиссер: Джейсон Фурукава

rating

В ролях:

АннаЛинн МакКорд, Марк Ганиме, Грэйсин Шиней, Дарла Тейлор, Брент Стейт, Кайл Кэсси, Майкл Копса, Джоди Томпсон, Эмма Джонсон, Стив Макадж

Описание:

Мужа и жену донимает неизвестный мужчина, который грозится расправиться с их семьей. Удастся ли им спасти своих близких, если помощи просить не у кого?

Качество: WEB-DL 720p
Формат: MKV

Видео: h.264, 4 466 kb/s, 1280x720
Аудио#1: Русский, (AC3, 2 ch, 384 Кбит/с)
скриншот  скриншот  скриншот  

Общее
Уникальный идентификатор : 244184940687869080188704793889371221694 (0xB7B44F15A35046D6B3C0D0BC84466EBE)
Полное имя : D:\Watch Your Back.2015.P.WEB-DL.72Op_KOSHARA.mkv
Формат : Matroska
Версия формата : Version 2
Размер файла : 3,09 Гбайт
Продолжительность : 1 ч. 31 м.
Режим общего битрейта : Переменный
Общий поток : 4852 Кбит/сек
Дата кодирования : UTC 2018-07-06 04:58:46
Программа кодирования : mkvmerge v8.3.0 ('Over the Horizon') 64bit
Библиотека кодирования : libebml v1.3.1 + libmatroska v1.4.2

Видео
Идентификатор : 1
Формат : AVC
Формат/Информация : Advanced Video Codec
Профиль формата : High@L4.1
Параметр CABAC формата : Да
Параметр RefFrames формата : 4 кадра
Идентификатор кодека : V_MPEG4/ISO/AVC
Продолжительность : 1 ч. 31 м.
Вид битрейта : Переменный
Битрейт : 4466 Кбит/сек
Максимальный битрейт : 5000 Кбит/сек
Ширина : 1280 пикселей
Высота : 720 пикселей
Соотношение сторон : 16:9
Режим частоты кадров : Постоянный
Частота кадров : 23,976 (24000/1001) кадра/сек
Стандарт вещания : Component
Цветовое пространство : YUV
Субдискретизация насыщенности : 4:2:0
Битовая глубина : 8 бит
Тип развёртки : Прогрессивная
Бит/(Пиксели*Кадры) : 0.198
Размер потока : 2,78 Гбайт (90%)
Default : Да
Forced : Нет
Цветовой диапазон : Limited
Основные цвета : BT.709
Характеристики трансфера : BT.709
Коэффициенты матрицы : BT.709

Аудио
Идентификатор : 2
Формат : AC-3
Формат/Информация : Audio Coding 3
Расширение режима : CM (complete main)
Параметр Endianness формата : Big
Идентификатор кодека : A_AC3
Продолжительность : 1 ч. 31 м.
Вид битрейта : Постоянный
Битрейт : 384 Кбит/сек
Каналы : 2 канала
Расположение каналов : Front: L R
Частота : 48,0 КГц
Частота кадров : 31,250 кадров/сек (1536 spf)
Метод сжатия : С потерями
Размер потока : 250 Мбайт (8%)
Default : Да
Forced : Нет

pb.wtf



Скачать Фото убийцы через торрент https://img11.lostpic.net/2018/07/07/6efc569bfd5166f80d9ff2dbed7b2cba.jpg Скачать фильм Фото убийцы через торрент бесплантно в хорошем качестве Описание: Мужа и жену донимает неизвестный мужчина, который грозится расправиться с их семьей. Удастся ли им спасти своих близких, если ... 10 10 2
Торрент: Зарегистрирован [2018-07-07 06:54] · скачан: 10 раз
Статус: T временная
Размер: 3.09 GB
Как cкачать? Как скачать Фото убийцы через торрент | qTorrent

% Раздел Тема Автор DL S | L
T Фильмы (мультфильмы) cо спонсором показа (Новинки AVI/MKV) [ 1.37 GB ] Фото убийцы / Killer Photo / Watch Your Back. [2015 WEB-DLRip] MVO ["Синема УС"] bober100 Скачать
1 | 0

28-11-2019 20:33  

Отключить всю рекламу на сайте


    Дорогой пользователь! Огромная просьба, поблагодарите релизера, оцените раздачу и оставьте свои комментарий, если Вы скачали Фото убийцы через торрент бесплатно! Внесите свою лепту в развитие PiratBit!
    Комментировать посты могут только пользователи прошедшие не сложную регистрацию
    Показать сообщения:    

    Фото убийцы через торрент
    Скачать бесплатно Фото убийцы
    Фото убийцы скачать торрент
    Фото убийцы смотреть онлайн
    Cкачать фильм Фото убийцы бесплатно
    Фото убийцы скачать торрент в хорошем качестве
    Фото убийцы смотреть онлайн бесплатно в хорошем качестве


    Вы не можете начинать темы
    Вы не можете отвечать на сообщения
    Вы не можете редактировать свои сообщения
    Вы не можете удалять свои сообщения
    Вы не можете голосовать в опросах
    Вы не можете прикреплять файлы к сообщениям
    Вы можете скачивать файлы