Ссылка на приватное зеркало всего за 1$. Внимание количество ограничено!!!

iTunes

iTunes

iTunes

1

iTunes

iTunes

iTunes

WEBRip

iTunes

30
pack

$ от Little Big

ВАЖНО

!!Акция!!

Alien_RageХит недели

RePack

Resident Evil 21

ИГРА 18+

pack

RePack

jed

!!Акция!!

Alien_Rage

RePack

fifa19

RePack

Assassins Creed: Odyssey

RePack

NEED FOR SPEED™ PAYBACK

4 сезон

9 сезон

Бесстыжие 9 сезон

Все сериалы

все сериалы на PB.wtf

RePack

FAR CRY 5
  

Секс-пленка / sxtape (Бернард Роуз) [2013, ужасы, HDRip] DUB [BDRip 720p] pb.wtf

Секс-пленка через торрент pb.wtf

Размер: 3.88 GB | Добавлен: 2 года 1 мес. назад | Торрент скачан:64 раза
Скачать  

07-07-2018 09:26 Секс-пленка Скачать торрент  

Секс-пленка / sxtapeГод выпуска: 2013
Страна: США
Жанр: ужасы
Продолжительность: 01:26:33
Перевод: Дублированный | Line
Субтитры: отсутствуют

Режиссер: Бернард Роуз

rating

В ролях:

Кекир Фоли, Йен Дункан, Диана Гарсиа, Крис Кой, Джули Ариелла Маркус, Стивен Простер, Даниэль Фаральдо, Эрика Лин Бэйли, Гордон Паркс III, Маредит Соттилли

Описание:

Адам и Джилл, в надежде оживить свои отношения, решают снять интимное видео в старом заброшенном особняке. Внезапно становится очевидным тот факт, что они вовсе не одиноки в этой новой зловещей среде. И вскоре пара понимает, что некоторые секс ленты вообще не стоит снимать, поскольку их странная затея молниеносно превращается в отчаянную борьбу за выживание...

Качество: BDRip 720p
Формат: MKV

Видео: h.264, 5 964 kb/s, 1280x720
Аудио#1: Русский, (AC3, 2 ch, 448 Кбит/с)
скриншот  скриншот  скриншот  

Общее
Уникальный идентификатор : 200472975606552395025795108654325295622 (0x96D1B0D0263C2F55B88D719FB489EA06)
Полное имя : D:\Sxtape.2013.D.BDRip.72Op_KOSHARA.mkv
Формат : Matroska
Версия формата : Version 2
Размер файла : 3,88 Гбайт
Продолжительность : 1 ч. 26 м.
Режим общего битрейта : Переменный
Общий поток : 6414 Кбит/сек
Дата кодирования : UTC 2018-07-06 05:02:27
Программа кодирования : mkvmerge v8.3.0 ('Over the Horizon') 64bit
Библиотека кодирования : libebml v1.3.1 + libmatroska v1.4.2

Видео
Идентификатор : 1
Формат : AVC
Формат/Информация : Advanced Video Codec
Профиль формата : High@L4.1
Параметр CABAC формата : Да
Параметр RefFrames формата : 4 кадра
Идентификатор кодека : V_MPEG4/ISO/AVC
Продолжительность : 1 ч. 26 м.
Вид битрейта : Переменный
Битрейт : 5964 Кбит/сек
Максимальный битрейт : 6800 Кбит/сек
Ширина : 1280 пикселей
Высота : 720 пикселей
Соотношение сторон : 16:9
Режим частоты кадров : Постоянный
Частота кадров : 23,976 (24000/1001) кадра/сек
Стандарт вещания : Component
Цветовое пространство : YUV
Субдискретизация насыщенности : 4:2:0
Битовая глубина : 8 бит
Тип развёртки : Прогрессивная
Бит/(Пиксели*Кадры) : 0.264
Размер потока : 3,53 Гбайт (91%)
Default : Да
Forced : Нет
Цветовой диапазон : Limited
Основные цвета : BT.709
Характеристики трансфера : BT.709
Коэффициенты матрицы : BT.709

Аудио
Идентификатор : 2
Формат : AC-3
Формат/Информация : Audio Coding 3
Расширение режима : CM (complete main)
Параметр Endianness формата : Big
Идентификатор кодека : A_AC3
Продолжительность : 1 ч. 26 м.
Вид битрейта : Постоянный
Битрейт : 448 Кбит/сек
Каналы : 2 канала
Расположение каналов : Front: L R
Частота : 48,0 КГц
Частота кадров : 31,250 кадров/сек (1536 spf)
Метод сжатия : С потерями
Размер потока : 277 Мбайт (7%)
Default : Да
Forced : Нет

pb.wtf



Скачать Секс-пленка через торрент https://img11.lostpic.net/2018/07/07/96910e36a98305786cf1bbc3d33a75cc.jpg Скачать фильм Секс-пленка через торрент бесплантно в хорошем качестве Описание: Адам и Джилл, в надежде оживить свои отношения, решают снять интимное видео в старом заброшенном особняке. Внезапно становится ... 7.9 10 7
Торрент: Зарегистрирован [2018-07-07 09:26] · скачан: 64 раз
Статус: # сомнительно
Размер: 3.88 GB
Как cкачать? Как скачать Секс-пленка через торрент | qTorrent

% Раздел Тема Автор DL S | L
T Фильмы (мультфильмы) cо спонсором показа (Новинки AVI/MKV) [ 1.37 GB ] Секс-пленка / sxtape [2013 HDRip] DUB [Line] bober100 Скачать
1 | 0
Фильмы 2013 (Звук TS, Cam, VO, DVO) [ 1.37 GB ] Секс-пленка / sxtape [2013 HDRipЛюбительский [PashaUP] Ворон Скачать
1 | 0

28-11-2019 20:33  

Отключить всю рекламу на сайте

07-07-2018 10:10 Секс-пленка Скачать торрент  

мда... ждал 5 лет, наконец то звук почистили pb.wtf



    Дорогой пользователь! Огромная просьба, поблагодарите релизера, оцените раздачу и оставьте свои комментарий, если Вы скачали Секс-пленка через торрент бесплатно! Внесите свою лепту в развитие PiratBit!
    Комментировать посты могут только пользователи прошедшие не сложную регистрацию
    Показать сообщения:    

    Секс-пленка через торрент
    Скачать бесплатно Секс-пленка
    Секс-пленка скачать торрент
    Секс-пленка смотреть онлайн
    Cкачать фильм Секс-пленка бесплатно
    Секс-пленка скачать торрент в хорошем качестве
    Секс-пленка смотреть онлайн бесплатно в хорошем качестве


    Вы не можете начинать темы
    Вы не можете отвечать на сообщения
    Вы не можете редактировать свои сообщения
    Вы не можете удалять свои сообщения
    Вы не можете голосовать в опросах
    Вы не можете прикреплять файлы к сообщениям
    Вы можете скачивать файлы