Ссылка на приватное зеркало всего за 1$. Внимание количество ограничено!!!

OK

1+1

iTunes

мы

OK

1

WEB-DLRip

Джокер

Пифагор

Ведьмак / The Witcher сериал

iTunes

ПШазам

ОК

Оно 2

iTunes

30
pack

Вам бонус

ВАЖНО

!!Акция!!

Alien_RageХит недели

RePack

Resident Evil 21

ИГРА 18+

pack

RePack

jed

RePack

fifa19

RePack

Assassins Creed: Odyssey

RePack

NEED FOR SPEED™ PAYBACK

4 сезон

9 сезон

Бесстыжие 9 сезон

Все сериалы

все сериалы на PB.wtf

RePack

FAR CRY 5
  

Рэй встречает Елену / Ray Meets Helen (Алан Рудольф) [2017, Фэнтези, драма, мелодрама, WEB-DL 720p] MVO ["Синема УС"] pb.wtf

Рэй встречает Елену через торрент pb.wtf

Размер: 3.9 GB | Добавлен: 1 год 6 мес. назад | Торрент скачан:13 раз
Скачать  

07-07-2018 10:59 Рэй встречает Елену Скачать торрент  

Рэй встречает Елену / Ray Meets HelenГод выпуска: 2017
Страна: США
Жанр: Фэнтези, драма, мелодрама
Продолжительность: 01:55:32
Перевод: Любительский (многоголосый) | "Синема УС"
Субтитры: отсутствуют

Режиссер: Алан Рудольф

rating

В ролях:

Кит Кэрредин, Сондра Лок, Кит Дэвид, Саманта Мэтис, Дженнифер Тилли, Джошуа Джонсон-Лионель, Ким Уайанс, Синда Уильямс, Джек Ноузуорти, Ленни фон Долен

Описание:

По невероятному стечению обстоятельств Рэй и Елена вдруг становятся сказочно богаты. Теперь у них, наконец-то, появляется шанс оставить прошлое в прошлом и начать новую счастливую жизнь.

Качество: WEB-DL 720p
Формат: MKV

Видео: h.264, 4 446 kb/s, 1280x720
Аудио#1: Русский, (AC3, 2 ch, 384 Кбит/с)
скриншот  скриншот  скриншот  

Общее
Уникальный идентификатор : 248920935665491501089601363138954944203 (0xBB446DAA335E0DAD969B7142CA505ECB)
Полное имя : D:\Ray.Meets.Helen.2017.P.WEB-DL.72Op_KOSHARA.mkv
Формат : Matroska
Версия формата : Version 2
Размер файла : 3,90 Гбайт
Продолжительность : 1 ч. 55 м.
Режим общего битрейта : Переменный
Общий поток : 4832 Кбит/сек
Дата кодирования : UTC 2018-07-06 01:16:01
Программа кодирования : mkvmerge v8.3.0 ('Over the Horizon') 64bit
Библиотека кодирования : libebml v1.3.1 + libmatroska v1.4.2

Видео
Идентификатор : 1
Формат : AVC
Формат/Информация : Advanced Video Codec
Профиль формата : High@L4.1
Параметр CABAC формата : Да
Параметр RefFrames формата : 4 кадра
Идентификатор кодека : V_MPEG4/ISO/AVC
Продолжительность : 1 ч. 55 м.
Вид битрейта : Переменный
Битрейт : 4446 Кбит/сек
Максимальный битрейт : 5000 Кбит/сек
Ширина : 1280 пикселей
Высота : 720 пикселей
Соотношение сторон : 16:9
Режим частоты кадров : Постоянный
Частота кадров : 23,976 (24000/1001) кадра/сек
Стандарт вещания : Component
Цветовое пространство : YUV
Субдискретизация насыщенности : 4:2:0
Битовая глубина : 8 бит
Тип развёртки : Прогрессивная
Бит/(Пиксели*Кадры) : 0.197
Размер потока : 3,51 Гбайт (90%)
Default : Да
Forced : Нет
Цветовой диапазон : Limited
Основные цвета : BT.709
Характеристики трансфера : BT.709
Коэффициенты матрицы : BT.709

Аудио
Идентификатор : 2
Формат : AC-3
Формат/Информация : Audio Coding 3
Расширение режима : CM (complete main)
Параметр Endianness формата : Big
Идентификатор кодека : A_AC3
Продолжительность : 1 ч. 55 м.
Вид битрейта : Постоянный
Битрейт : 384 Кбит/сек
Каналы : 2 канала
Расположение каналов : Front: L R
Частота : 48,0 КГц
Частота кадров : 31,250 кадров/сек (1536 spf)
Метод сжатия : С потерями
Размер потока : 317 Мбайт (8%)
Default : Да
Forced : Нет

pb.wtf



Скачать Рэй встречает Елену через торрент https://img11.lostpic.net/2018/07/07/3797e45f1df44ec53be56f451d9043a6.jpg Скачать фильм Рэй встречает Елену через торрент бесплантно в хорошем качестве Описание: По невероятному стечению обстоятельств Рэй и Елена вдруг становятся сказочно богаты. Теперь у них, наконец-то, появляется шанс ... 10 10 2
Торрент: Зарегистрирован [2018-07-07 10:59] · скачан: 13 раз
Статус: T временная
Размер: 3.9 GB
Как cкачать? Как скачать Рэй встречает Елену через торрент | qTorrent

% Раздел Тема Автор DL S | L
T Фильмы (мультфильмы) cо спонсором показа (Новинки AVI/MKV) [ 1.46 GB ] Рэй встречает Елену / Ray Meets Helen [2017 WEB-DLRip] MVO ["Синема УС"] bober100 Скачать
1 | 0

28-11-2019 20:33  

Отключить всю рекламу на сайте

    Дорогой пользователь! Огромная просьба, поблагодарите релизера, оцените раздачу и оставьте свои комментарий, если Вы скачали Рэй встречает Елену через торрент бесплатно! Внесите свою лепту в развитие PiratBit!
    Комментировать посты могут только пользователи прошедшие не сложную регистрацию
    Показать сообщения:    

    Рэй встречает Елену через торрент
    Скачать бесплатно Рэй встречает Елену
    Рэй встречает Елену скачать торрент
    Рэй встречает Елену смотреть онлайн
    Cкачать фильм Рэй встречает Елену бесплатно
    Рэй встречает Елену скачать торрент в хорошем качестве
    Рэй встречает Елену смотреть онлайн бесплатно в хорошем качестве


    Вы не можете начинать темы
    Вы не можете отвечать на сообщения
    Вы не можете редактировать свои сообщения
    Вы не можете удалять свои сообщения
    Вы не можете голосовать в опросах
    Вы не можете прикреплять файлы к сообщениям
    Вы можете скачивать файлы