Ссылка на приватное зеркало всего за 1$. Внимание количество ограничено!!!

OK

1+1

iTunes

мы

OK

1

WEB-DLRip

Джокер

Пифагор

Ведьмак / The Witcher сериал

Лицензия

ПШазам

ОК

Оно 2

iTunes

30
pack

Вам бонус

ВАЖНО

!!Акция!!

Alien_RageХит недели

RePack

Resident Evil 21

ИГРА 18+

pack

RePack

jed

RePack

fifa19

RePack

Assassins Creed: Odyssey

RePack

NEED FOR SPEED™ PAYBACK

4 сезон

9 сезон

Бесстыжие 9 сезон

Все сериалы

все сериалы на PB.wtf

RePack

FAR CRY 5
  

На Крыльях Ангела / On Angel's Wings (Аарон Л. Уильямс) [2014, Семейный, спорт, WEB-DL 720p] MVO ["Синема УС"] pb.wtf

На Крыльях Ангела через торрент pb.wtf

Размер: 2.94 GB | Добавлен: 1 год 6 мес. назад | Торрент скачан:4 раза
Скачать  

07-07-2018 11:23 На Крыльях Ангела Скачать торрент  

На Крыльях Ангела / On Angel's WingsГод выпуска: 2014
Страна: США
Жанр: Семейный, спорт
Продолжительность: 01:25:53
Перевод: Любительский (многоголосый) | "Синема УС"
Субтитры: отсутствуют

Режиссер: Аарон Л. Уильямс

rating

В ролях:

Реджинальд ВелДжонсон, Робин Гивенс, Билл Коббс, Джералд Уэбб, Шон Хьюз, Тейлор Фэй Руффин, Тайлер Хамфри, Роберт Майкл Сзот, Джессика Гарза, Линда Алор

Описание:

Когда главная звезда команды Тренера Картера, получает травму, он решает вывести на поле запасного игрока МакКензи Адамс. После того как она своей игрой, опозорилась на всю школу, удача переходит на её сторону, когда она встречает Ангела, который дарит ей 3 желания.

Качество: WEB-DL 720p
Формат: MKV

Видео: h.264, 4 509 kb/s, 1280x720
Аудио#1: Русский, (AC3, 2 ch, 384 Кбит/с)
скриншот  скриншот  скриншот  

Общее
Уникальный идентификатор : 210987900736270758849807962125040160514 (0x9EBACAA5D911D856B8C09EE6BD610F02)
Полное имя : D:\On Angels Wings.2014.P.WEB-DL.72Op_KOSHARA.mkv
Формат : Matroska
Версия формата : Version 2
Размер файла : 2,94 Гбайт
Продолжительность : 1 ч. 25 м.
Режим общего битрейта : Переменный
Общий поток : 4895 Кбит/сек
Дата кодирования : UTC 2018-07-06 06:02:10
Программа кодирования : mkvmerge v8.3.0 ('Over the Horizon') 64bit
Библиотека кодирования : libebml v1.3.1 + libmatroska v1.4.2

Видео
Идентификатор : 1
Формат : AVC
Формат/Информация : Advanced Video Codec
Профиль формата : High@L4.1
Параметр CABAC формата : Да
Параметр RefFrames формата : 4 кадра
Идентификатор кодека : V_MPEG4/ISO/AVC
Продолжительность : 1 ч. 25 м.
Вид битрейта : Переменный
Битрейт : 4509 Кбит/сек
Максимальный битрейт : 5000 Кбит/сек
Ширина : 1280 пикселей
Высота : 720 пикселей
Соотношение сторон : 16:9
Режим частоты кадров : Постоянный
Частота кадров : 23,976 (24000/1001) кадра/сек
Стандарт вещания : Component
Цветовое пространство : YUV
Субдискретизация насыщенности : 4:2:0
Битовая глубина : 8 бит
Тип развёртки : Прогрессивная
Бит/(Пиксели*Кадры) : 0.200
Размер потока : 2,65 Гбайт (90%)
Default : Да
Forced : Нет
Цветовой диапазон : Limited
Основные цвета : BT.709
Характеристики трансфера : BT.709
Коэффициенты матрицы : BT.709

Аудио
Идентификатор : 2
Формат : AC-3
Формат/Информация : Audio Coding 3
Расширение режима : CM (complete main)
Параметр Endianness формата : Big
Идентификатор кодека : A_AC3
Продолжительность : 1 ч. 25 м.
Вид битрейта : Постоянный
Битрейт : 384 Кбит/сек
Каналы : 2 канала
Расположение каналов : Front: L R
Частота : 48,0 КГц
Частота кадров : 31,250 кадров/сек (1536 spf)
Метод сжатия : С потерями
Размер потока : 236 Мбайт (8%)
Default : Да
Forced : Нет

pb.wtf



Скачать На Крыльях Ангела через торрент https://img11.lostpic.net/2018/07/07/794a903e0d59fc225d69167b22df994f.jpg Скачать фильм На Крыльях Ангела через торрент бесплантно в хорошем качестве Описание: Когда главная звезда команды Тренера Картера, получает травму, он решает вывести на поле запасного игрока МакКензи Адамс. После ... 7.8 10 4
Торрент: Зарегистрирован [2018-07-07 11:23] · скачан: 4 раз
Статус: T временная
Размер: 2.94 GB
Как cкачать? Как скачать На Крыльях Ангела через торрент | qTorrent

28-11-2019 20:33  

Отключить всю рекламу на сайте

    Дорогой пользователь! Огромная просьба, поблагодарите релизера, оцените раздачу и оставьте свои комментарий, если Вы скачали На Крыльях Ангела через торрент бесплатно! Внесите свою лепту в развитие PiratBit!
    Комментировать посты могут только пользователи прошедшие не сложную регистрацию
    Показать сообщения:    

    На Крыльях Ангела через торрент
    Скачать бесплатно На Крыльях Ангела
    На Крыльях Ангела скачать торрент
    На Крыльях Ангела смотреть онлайн
    Cкачать фильм На Крыльях Ангела бесплатно
    На Крыльях Ангела скачать торрент в хорошем качестве
    На Крыльях Ангела смотреть онлайн бесплатно в хорошем качестве


    Вы не можете начинать темы
    Вы не можете отвечать на сообщения
    Вы не можете редактировать свои сообщения
    Вы не можете удалять свои сообщения
    Вы не можете голосовать в опросах
    Вы не можете прикреплять файлы к сообщениям
    Вы можете скачивать файлы