Достать ножи: Стеклянная луковица

MVO

Добыча

Дубляж

Уэнсдэй

1 сезон

Тор

Дубляж

13 клиническая

1 сезон

Жестокая ночь

MVO

Одни из нас

1 сезон

Deluxe

pack

Рекомендуем

30

Пиратка

ВАЖНО

ВАЖНО

Ghostwire

Пиратка

jed

RePack

nioh2

RePack

RDR2

RePack

NEED FOR SPEED™ PAYBACK

RePack

скачать торрент

Кинопоиск HD

Острые козырьки 6 сезон

6 сезон

FAR CRY 6

RePack

скачать торрент

Лицензия

скачать торрент

MVO

1

1 сезон

скачать торрент

1 сезон

скачать торрент

Лицензия

  

Первому игроку приготовиться / Ready Player One (Стивен Спилберг) [2018 г., Фантастика, боевик, приключения, BDRip 1080p, HEVC (10bit), Дубляж Лицензия]

Первому игроку приготовиться через торрент pb.wtf

Размер: 6.62 GB | Добавлен: 4 года 6 мес. назад | Торрент скачан:1121 раз
Смотреть онлайн | Скачать | Поддержите нас   

07-07-2018 11:36 Первому игроку приготовиться Скачать торрент  

Первому игроку приготовиться / Ready Player One
Год выпуска: 2018
Страна: США
Жанр: Фантастика, боевик, приключения
Продолжительность: 02:19:58
Перевод: Дубляж (Лицензия)
Субтитры: Русские (форсированные, полные), английские

Режиссер: Стивен Спилберг

Премьера в мире: 11 марта 2018

rating

В ролях: Тай Шеридан, Оливия Кук, Бен Мендельсон, Лина Уэйте, ТиДжей Миллер, Саймон Пегг, Марк Райлэнс, Филип Чжао, Уин Морисаки, Ханна Джон-Кэймен, Ралф Айнесон, Сьюзэн Линч, Клер Хиггинс, Лоуренс Спэллман, Пердита Викс

Описание: Действие фильма происходит в 2045 году, мир погружается в хаос и находится на грани коллапса. Люди ищут спасения в игре OASIS — огромной вселенной виртуальной реальности. Ее создатель, гениальный и эксцентричный Джеймс Холлидэй, оставляет уникальное завещание. Все его колоссальное состояние получит игрок, первым обнаруживший цифровое «пасхальное яйцо», которое миллиардер спрятал где-то на просторах OASISа. Запущенный им квест охватывает весь мир.
Доп. информация: -
H.265/HEVC (High Efficiency Video Coding) - это новый стандарт кодирования видео.
- Стандарт H.265/HEVC является логическим продолжением стандарта
H.264/AVC (Advanced Video Coding), и характеризуется более эффективными
алгоритмами сжатия, а также поддержкой высокого разрешения вплоть до 8K UHD
(8192x4320). Первая версия стандарта H.265 была опубликована в начале 2013 года.
- Рипы в фомате HEVC поддерживается не всеми аппаратными проигрывателями.
- Для корректного воспроизведения может потребоваться обновление ПО.
- Владельцам несовместимого железа просьба не беспокоить,
есть альтернативные релизы.
Качество: BDRip 1080p
Формат: MKV
Видео кодек: H.265
Аудио кодек: AC3
Видео: 1920x804, ~5936 Kbps
Аудио#1: AC3, 6 ch, 384 Kbps (Дублированный)
Аудио#2: AC3, 6 ch, 448 Kbps (Оригинал)
Релиз от: Мичман Семпл
Общее
Уникальный идентификатор : 79527431843166351832524810654114738631 (0x3BD46D1DFAAF806BF60BC23CC53971C7)
Полное имя : J:\ФИЛЬМЫ\Первому игроку приготовится.2018.1080p. HEVC. Рип от Мичмана.mkv
Формат : Matroska
Версия формата : Version 4 / Version 2
Размер файла : 6,62 Гбайт
Продолжительность : 2 ч. 19 м.
Общий поток : 6770 Кбит/сек
Название фильма : Рип от Мичмана
Дата кодирования : UTC 2018-07-07 06:00:12
Программа кодирования : mkvmerge v21.0.0 ('Tardigrades Will Inherit The Earth') 64-bit
Библиотека кодирования : libebml v1.3.5 + libmatroska v1.4.8
Обложка : Yes
Attachments : cover.jpg

Видео
Идентификатор : 1
Формат : HEVC
Формат/Информация : High Efficiency Video Coding
Профиль формата : Main [email protected]@Main
Идентификатор кодека : V_MPEGH/ISO/HEVC
Продолжительность : 2 ч. 19 м.
Битрейт : 5936 Кбит/сек
Ширина : 1920 пикселей
Высота : 804 пикселя
Соотношение сторон : 2,40:1
Режим частоты кадров : Постоянный
Частота кадров : 23,976 (24000/1001) кадра/сек
Цветовое пространство : YUV
Субдискретизация насыщенности : 4:2:0
Битовая глубина : 10 бит
Бит/(Пиксели*Кадры) : 0.160
Размер потока : 5,80 Гбайт (88%)
Библиотека кодирования : x265 2.8+19-bcdc610cf5f0:[Windows][GCC 7.3.0][64 bit] 10bit
Настройки программы : cpuid=1064959 / frame-threads=9 / numa-pools=8 / wpp / no-pmode / no-pme / no-psnr / no-ssim / log-level=3 / input-csp=1 / input-res=1920x804 / interlace=0 / total-frames=0 / level-idc=51 / high-tier=1 / uhd-bd=0 / ref=3 / allow-non-conformance / no-repeat-headers / annexb / no-aud / no-hrd / info / hash=0 / no-temporal-layers / open-gop / min-keyint=10 / keyint=240 / gop-lookahead=0 / bframes=6 / b-adapt=2 / b-pyramid / bframe-bias=0 / rc-lookahead=20 / lookahead-slices=5 / scenecut=40 / radl=0 / no-intra-refresh / ctu=64 / min-cu-size=8 / no-rect / no-amp / max-tu-size=32 / tu-inter-depth=1 / tu-intra-depth=1 / limit-tu=0 / rdoq-level=0 / dynamic-rd=0.00 / no-ssim-rd / signhide / no-tskip / nr-intra=0 / nr-inter=0 / no-constrained-intra / strong-intra-smoothing / max-merge=2 / limit-refs=3 / no-limit-modes / me=1 / subme=2 / merange=57 / temporal-mvp / weightp / no-weightb / no-analyze-src-pics / deblock=-2:-2 / no-sao / no-sao-non-deblock / rd=4 / no-early-skip / rskip / no-fast-intra / no-tskip-fast / no-cu-lossless / no-b-intra / no-splitrd-skip / rdpenalty=0 / psy-rd=2.00 / psy-rdoq=0.00 / no-rd-refine / no-lossless / cbqpoffs=0 / crqpoffs=0 / rc=abr / bitrate=6000 / qcomp=0.60 / qpstep=4 / stats-write=0 / stats-read=0 / ipratio=1.40 / pbratio=1.30 / aq-mode=1 / aq-strength=1.00 / cutree / zone-count=0 / no-strict-cbr / qg-size=32 / no-rc-grain / qpmax=69 / qpmin=0 / no-const-vbv / sar=1 / overscan=0 / videoformat=5 / range=0 / colorprim=2 / transfer=2 / colormatrix=2 / chromaloc=0 / display-window=0 / max-cll=0,0 / min-luma=0 / max-luma=1023 / log2-max-poc-lsb=8 / vui-timing-info / vui-hrd-info / slices=1 / no-opt-qp-pps / no-opt-ref-list-length-pps / no-multi-pass-opt-rps / scenecut-bias=0.05 / no-opt-cu-delta-qp / no-aq-motion / no-hdr / no-hdr-opt / no-dhdr10-opt / no-idr-recovery-sei / analysis-reuse-level=5 / scale-factor=0 / refine-intra=0 / refine-inter=0 / refine-mv=0 / no-limit-sao / ctu-info=0 / no-lowpass-dct / refine-mv-type=0 / copy-pic=1 / max-ausize-factor=1.0 / no-dynamic-refine / no-single-sei
Язык : English
Default : Да
Forced : Нет

Аудио #1
Идентификатор : 2
Формат : AC-3
Формат/Информация : Audio Coding 3
Идентификатор кодека : A_AC3
Продолжительность : 2 ч. 19 м.
Вид битрейта : Постоянный
Битрейт : 384 Кбит/сек
Каналы : 6 каналов
Расположение каналов : Front: L C R, Side: L R, LFE
Частота : 48,0 КГц
Частота кадров : 31,250 кадров/сек (1536 SPF)
Битовая глубина : 16 бит
Метод сжатия : С потерями
Размер потока : 384 Мбайт (6%)
Заголовок : Дубляж | DD 5.1 @ 384 kbps
Язык : Russian
ServiceKind/String : Complete Main
Default : Да
Forced : Да

Аудио #2
Идентификатор : 3
Формат : AC-3
Формат/Информация : Audio Coding 3
Идентификатор кодека : A_AC3
Продолжительность : 2 ч. 19 м.
Вид битрейта : Постоянный
Битрейт : 448 Кбит/сек
Каналы : 6 каналов
Расположение каналов : Front: L C R, Side: L R, LFE
Частота : 48,0 КГц
Частота кадров : 31,250 кадров/сек (1536 SPF)
Битовая глубина : 16 бит
Метод сжатия : С потерями
Размер потока : 449 Мбайт (7%)
Заголовок : Original | DD 5.1 @ 448 kbps
Язык : English
ServiceKind/String : Complete Main
Default : Нет
Forced : Нет

Текст #1
Идентификатор : 4
Формат : UTF-8
Идентификатор кодека : S_TEXT/UTF8
Идентификатор кодека/Информация : UTF-8 Plain Text
Продолжительность : 1 ч. 52 м.
Битрейт : 1 бит/сек
ElementCount : 33
Размер потока : 1,25 Кбайт (0%)
Заголовок : Forced
Язык : Russian
Default : Да
Forced : Нет

Текст #2
Идентификатор : 5
Формат : UTF-8
Идентификатор кодека : S_TEXT/UTF8
Идентификатор кодека/Информация : UTF-8 Plain Text
Продолжительность : 2 ч. 10 м.
Битрейт : 92 бит/сек
ElementCount : 1411
Размер потока : 88,3 Кбайт (0%)
Заголовок : iTunes
Язык : Russian
Default : Нет
Forced : Нет

Текст #3
Идентификатор : 6
Формат : UTF-8
Идентификатор кодека : S_TEXT/UTF8
Идентификатор кодека/Информация : UTF-8 Plain Text
Продолжительность : 2 ч. 7 м.
Битрейт : 60 бит/сек
ElementCount : 1635
Размер потока : 56,2 Кбайт (0%)
Заголовок : Full
Язык : English
Default : Нет
Forced : Нет

Меню
00:00:00.000 : :00:00:00.000
00:10:08.233 : :00:10:08.233
00:20:18.259 : :00:20:18.259
00:30:37.627 : :00:30:37.627
00:40:38.269 : :00:40:38.269
00:50:08.964 : :00:50:08.964
01:03:01.778 : :01:03:01.778
01:11:55.269 : :01:11:55.269
01:20:14.727 : :01:20:14.727
01:30:58.328 : :01:30:58.328
01:43:26.742 : :01:43:26.742
01:53:02.150 : :01:53:02.150
02:04:20.161 : :02:04:20.161
02:09:17.249 : :02:09:17.249




Скачать Первому игроку приготовиться через торрент https://c.radikal.ru/c21/1807/b3/2f8ccad3023f.jpg Скачать, смотреть онлайн Первому игроку приготовиться бесплантно в хорошем качестве Описание: Действие фильма происходит в 2045 году, мир погружается в хаос и находится на грани коллапса. Люди ищут спасения в игре OASIS — ... 10 10 23
Info! Золотая раздача, скачанное не засчитывается.
Торрент: Зарегистрирован [2018-07-07 11:36] · скачан: 1 121 раз
Статус: √ проверено
Размер: 6.62 GB
Как cкачать? Как скачать Первому игроку приготовиться через торрент | UTorrent

% Раздел Тема Автор DL S | L
Фильмы 2018 [DVDrip, WEB-DLRip, HDrip] (DUB, MVO) [ 2.18 GB ] Первому игроку приготовиться / Ready Player One | Лицензия | BDRip Twi7ter Скачать
2 | 0
Фильмы 2018 [DVDrip, WEB-DLRip, HDrip] (DUB, MVO) [ 1.46 GB ] Первому игроку приготовиться / Ready Player One | Лицензия | BDRip Twi7ter Скачать
2 | 0

28-11-2019 20:33  


Отключить вcю реклaмy на сайте, в т.ч. и в плеере онлайн просмотра!

07-07-2018 21:09 Первому игроку приготовиться Скачать торрент  

Давно ждал в 1080, лицензию, спасибо за старания господа!!!!



10-07-2018 12:19 Первому игроку приготовиться Скачать торрент  

тут нет рекламы?



15-07-2018 14:24 Первому игроку приготовиться Скачать торрент  

тут нет рекламы?

нет

но нужно будет поставить кодек для воспроизведения



    Дорогой пользователь! Огромная просьба, поблагодарите релизера, оцените раздачу и оставьте свои комментарий, если Вы скачали Первому игроку приготовиться через торрент бесплатно!!
    Комментировать посты могут только пользователи прошедшие не сложную регистрацию
    Показать сообщения:    


    Первому игроку приготовиться через торрент
    Скачать бесплатно Первому игроку приготовиться
    Первому игроку приготовиться скачать торрент
    Первому игроку приготовиться смотреть онлайн
    Cкачать фильм Первому игроку приготовиться бесплатно
    Первому игроку приготовиться скачать торрент в хорошем качестве
    Первому игроку приготовиться смотреть онлайн бесплатно в хорошем качестве
    Вы не можете начинать темы
    Вы не можете отвечать на сообщения
    Вы не можете редактировать свои сообщения
    Вы не можете удалять свои сообщения
    Вы не можете голосовать в опросах
    Вы не можете прикреплять файлы к сообщениям
    Вы можете скачивать файлы
    Первому игроку приготовиться / Ready Player One [2018 г., Фантастика, боевик, приключения, BDRip 1080p, HEVC , Дубляж Лицензия] смотреть онлайн, скачать торрент picoco.icu