Ссылка на приватное зеркало всего за 1$. Внимание количество ограничено!!!

OK

1+1

iTunes

мы

OK

1

WEB-DLRip

Джокер

Пифагор

Ведьмак / The Witcher сериал

iTunes

ПШазам

ОК

Оно 2

iTunes

30
pack

Вам бонус

ВАЖНО

!!Акция!!

Alien_RageХит недели

RePack

Resident Evil 21

ИГРА 18+

pack

RePack

jed

RePack

fifa19

RePack

Assassins Creed: Odyssey

RePack

NEED FOR SPEED™ PAYBACK

4 сезон

9 сезон

Бесстыжие 9 сезон

Все сериалы

все сериалы на PB.wtf

RePack

FAR CRY 5
  

Я слежу за тобой / Girl Followed (Том Шелл) [2017, триллер, HDTVRip 720p] MVO ["Синема УС"] pb.wtf

Я слежу за тобой через торрент pb.wtf

Размер: 2.85 GB | Добавлен: 1 год 6 мес. назад | Торрент скачан:33 раза
Скачать  

07-07-2018 11:49 Я слежу за тобой Скачать торрент  

Я слежу за тобой / Girl Followed
Год выпуска: 2017
Страна: США
Жанр: триллер
Продолжительность: 01:24:06
Перевод: Любительский (многоголосый) | "Синема УС"
Субтитры: отсутствуют

Режиссер: Том Шелл

rating

В ролях:

Хезер МакКомб, Джозеф Лоуренс, Эмма Фурманн, Джианна ЛеПера, Трэвис Колдуэлл, Лаура Кай Чен, Оливия Никканен, Бетси Бейкер, Стэйси Барнхисел, Кэри Брейбой

Описание:

Четырнадцатилетняя девочка испытывает все трудности подросткового возраста. У нее очень напряженные отношения с родителями и сестрой. Она знакомится с мужчиной, который старше нее. Казалось бы, невинная дружба, но к чему она приведет?

Качество: HDTVRip 720p
Формат: MKV

Видео: h.264, 4 468 kb/s, 1280x720
Аудио#1: Русский, (AC3, 2 ch, 384 Кбит/с)
скриншот  скриншот  скриншот  

Общее
Уникальный идентификатор : 222655560945646348897344257607618844018 (0xA781E6B5C2DDBB97B1E6404B323CD572)
Полное имя : D:\Girl.followed.2017.P.HDTV.72Op_KOSHARA.mkv
Формат : Matroska
Версия формата : Version 2
Размер файла : 2,85 Гбайт
Продолжительность : 1 ч. 24 м.
Режим общего битрейта : Переменный
Общий поток : 4854 Кбит/сек
Дата кодирования : UTC 2018-07-06 03:56:22
Программа кодирования : mkvmerge v8.3.0 ('Over the Horizon') 64bit
Библиотека кодирования : libebml v1.3.1 + libmatroska v1.4.2

Видео
Идентификатор : 1
Формат : AVC
Формат/Информация : Advanced Video Codec
Профиль формата : High@L4.1
Параметр CABAC формата : Да
Параметр RefFrames формата : 4 кадра
Идентификатор кодека : V_MPEG4/ISO/AVC
Продолжительность : 1 ч. 24 м.
Вид битрейта : Переменный
Битрейт : 4468 Кбит/сек
Максимальный битрейт : 5000 Кбит/сек
Ширина : 1280 пикселей
Высота : 720 пикселей
Соотношение сторон : 16:9
Режим частоты кадров : Постоянный
Частота кадров : 23,976 (24000/1001) кадра/сек
Стандарт вещания : Component
Цветовое пространство : YUV
Субдискретизация насыщенности : 4:2:0
Битовая глубина : 8 бит
Тип развёртки : Прогрессивная
Бит/(Пиксели*Кадры) : 0.198
Размер потока : 2,57 Гбайт (90%)
Default : Да
Forced : Нет
Цветовой диапазон : Limited
Основные цвета : BT.709
Характеристики трансфера : BT.709
Коэффициенты матрицы : BT.709

Аудио
Идентификатор : 2
Формат : AC-3
Формат/Информация : Audio Coding 3
Расширение режима : CM (complete main)
Параметр Endianness формата : Big
Идентификатор кодека : A_AC3
Продолжительность : 1 ч. 24 м.
Вид битрейта : Постоянный
Битрейт : 384 Кбит/сек
Каналы : 2 канала
Расположение каналов : Front: L R
Частота : 48,0 КГц
Частота кадров : 31,250 кадров/сек (1536 spf)
Метод сжатия : С потерями
Размер потока : 231 Мбайт (8%)
Default : Да
Forced : Нет

pb.wtf



Скачать Я слежу за тобой через торрент https://img11.lostpic.net/2018/07/07/ee854034054bcf337dd7e36d1678e847.jpg Скачать фильм Я слежу за тобой через торрент бесплантно в хорошем качестве Описание: Четырнадцатилетняя девочка испытывает все трудности подросткового возраста. У нее очень напряженные отношения с родителями и ... 8 10 5
Торрент: Зарегистрирован [2018-07-07 11:49] · скачан: 33 раз
Статус: T временная
Размер: 2.85 GB
Как cкачать? Как скачать Я слежу за тобой через торрент | qTorrent

% Раздел Тема Автор DL S | L
T Фильмы (мультфильмы) cо спонсором показа (Новинки AVI/MKV) [ 1.37 GB ] Я слежу за тобой / Girl Followed [2017 HDTVRip] MVO ["Синема УС"] bober100 Скачать
1 | 0

28-11-2019 20:33  

Отключить всю рекламу на сайте

08-07-2018 17:40 Я слежу за тобой Скачать торрент  

Порно?pb.wtf



    Дорогой пользователь! Огромная просьба, поблагодарите релизера, оцените раздачу и оставьте свои комментарий, если Вы скачали Я слежу за тобой через торрент бесплатно! Внесите свою лепту в развитие PiratBit!
    Комментировать посты могут только пользователи прошедшие не сложную регистрацию
    Показать сообщения:    

    Я слежу за тобой через торрент
    Скачать бесплатно Я слежу за тобой
    Я слежу за тобой скачать торрент
    Я слежу за тобой смотреть онлайн
    Cкачать фильм Я слежу за тобой бесплатно
    Я слежу за тобой скачать торрент в хорошем качестве
    Я слежу за тобой смотреть онлайн бесплатно в хорошем качестве


    Вы не можете начинать темы
    Вы не можете отвечать на сообщения
    Вы не можете редактировать свои сообщения
    Вы не можете удалять свои сообщения
    Вы не можете голосовать в опросах
    Вы не можете прикреплять файлы к сообщениям
    Вы можете скачивать файлы