Ссылка на приватное зеркало всего за 1$. Внимание количество ограничено!!!

iTunes

iTunes

iTunes

1

iTunes

iTunes

iTunes

iTunes

iTunes

30
pack

$ от Little Big

ВАЖНО

!!Акция!!

Alien_RageХит недели

RePack

Resident Evil 21

ИГРА 18+

pack

RePack

jed

!!Акция!!

Alien_Rage

RePack

fifa19

RePack

Assassins Creed: Odyssey

RePack

NEED FOR SPEED™ PAYBACK

4 сезон

9 сезон

Бесстыжие 9 сезон

Все сериалы

все сериалы на PB.wtf

RePack

FAR CRY 5
  

Свингеры из Палм-Спрингс / Palm Swings (Шон Хоссели) [2017, Драма, мелодрама, комедия, BDRip 720p] MVO ["Синема УС"] pb.wtf

Свингеры из Палм-Спрингс через торрент pb.wtf

Размер: 4.4 GB | Добавлен: 1 год 11 мес. назад | Торрент скачан:80 раз
Скачать  

07-07-2018 12:56 Свингеры из Палм-Спрингс Скачать торрент  

Свингеры из Палм-Спрингс / Palm SwingsГод выпуска: 2017
Страна: США
Жанр: Драма, мелодрама, комедия
Продолжительность: 01:36:45
Перевод: Любительский (многоголосый) | "Синема УС"
Субтитры: отсутствуют

Режиссер: Шон Хоссели

rating

В ролях:

Дайан Фарр, Тиа Каррере, Стефани Бирд, Джейсон Льюис, Мэдисон МакКинли, Джефф Дэвис, Брайан Даре, Энтонимар Мерфи, Гентри Уайт, Триш Кук

Описание:

Молодая супружеская пара не успела переехать в Палм-Спрингс, как их соседи уже норовят сделать из них свингеров. Их брак под угрозой, поскольку Марк и Эллисон всё же решили окунуться в стиль жизни свингеров дабы освежить свои отношения. Но вот загвоздка, у каждой опытной в этой теме пары есть свои правила, о которых позабыли наши герои.

Качество: BDRip 720p
Формат: MKV

Видео: h.264, 6 054 kb/s, 1280x688
Аудио#1: Русский (AC3, 2 ch, 448 Кбит/с)
скриншот  скриншот  скриншот  

Общее
Уникальный идентификатор : 223942533271738512054755155532289239582 (0xA879C3583A4971749AEF5B8E2D5D6A1E)
Полное имя : D:\Palm.swings.2017.P.BDRip.72Op_KOSHARA.mkv
Формат : Matroska
Версия формата : Version 2
Размер файла : 4,40 Гбайт
Продолжительность : 1 ч. 36 м.
Режим общего битрейта : Переменный
Общий поток : 6504 Кбит/сек
Дата кодирования : UTC 2018-07-06 01:19:02
Программа кодирования : mkvmerge v8.3.0 ('Over the Horizon') 64bit
Библиотека кодирования : libebml v1.3.1 + libmatroska v1.4.2

Видео
Идентификатор : 1
Формат : AVC
Формат/Информация : Advanced Video Codec
Профиль формата : High@L4.1
Параметр CABAC формата : Да
Параметр RefFrames формата : 4 кадра
Идентификатор кодека : V_MPEG4/ISO/AVC
Продолжительность : 1 ч. 36 м.
Вид битрейта : Переменный
Битрейт : 6054 Кбит/сек
Максимальный битрейт : 6900 Кбит/сек
Ширина : 1280 пикселей
Высота : 688 пикселей
Соотношение сторон : 1,85:1
Режим частоты кадров : Постоянный
Частота кадров : 23,976 (24000/1001) кадра/сек
Стандарт вещания : Component
Цветовое пространство : YUV
Субдискретизация насыщенности : 4:2:0
Битовая глубина : 8 бит
Тип развёртки : Прогрессивная
Бит/(Пиксели*Кадры) : 0.281
Размер потока : 4,01 Гбайт (91%)
Default : Да
Forced : Нет
Цветовой диапазон : Limited
Основные цвета : BT.709
Характеристики трансфера : BT.709
Коэффициенты матрицы : BT.709

Аудио
Идентификатор : 2
Формат : AC-3
Формат/Информация : Audio Coding 3
Расширение режима : CM (complete main)
Параметр Endianness формата : Big
Идентификатор кодека : A_AC3
Продолжительность : 1 ч. 36 м.
Вид битрейта : Постоянный
Битрейт : 448 Кбит/сек
Каналы : 2 канала
Расположение каналов : Front: L R
Частота : 48,0 КГц
Частота кадров : 31,250 кадров/сек (1536 spf)
Метод сжатия : С потерями
Размер потока : 310 Мбайт (7%)
Default : Да
Forced : Нет

pb.wtf



Скачать Свингеры из Палм-Спрингс через торрент https://img11.lostpic.net/2018/07/07/4a8e1132e0c74fdffc1e4e5b192ee68b.jpg Скачать фильм Свингеры из Палм-Спрингс через торрент бесплантно в хорошем качестве Описание: Молодая супружеская пара не успела переехать в Палм-Спрингс, как их соседи уже норовят сделать из них свингеров. Их брак под ... 10 10 3
Торрент: Зарегистрирован [2018-07-07 12:56] · скачан: 80 раз
Статус: # сомнительно
Размер: 4.4 GB
Как cкачать? Как скачать Свингеры из Палм-Спрингс через торрент | qTorrent

% Раздел Тема Автор DL S | L
T Фильмы (мультфильмы) cо спонсором показа (Новинки AVI/MKV) [ 1.37 GB ] Свингеры из Палм-Спрингс / Palm Swings [2017 HDRip] MVO ["Синема УС"] bober100 Скачать
1 | 0

28-11-2019 20:33  

Отключить всю рекламу на сайте

    Дорогой пользователь! Огромная просьба, поблагодарите релизера, оцените раздачу и оставьте свои комментарий, если Вы скачали Свингеры из Палм-Спрингс через торрент бесплатно! Внесите свою лепту в развитие PiratBit!
    Комментировать посты могут только пользователи прошедшие не сложную регистрацию
    Показать сообщения:    

    Свингеры из Палм-Спрингс через торрент
    Скачать бесплатно Свингеры из Палм-Спрингс
    Свингеры из Палм-Спрингс скачать торрент
    Свингеры из Палм-Спрингс смотреть онлайн
    Cкачать фильм Свингеры из Палм-Спрингс бесплатно
    Свингеры из Палм-Спрингс скачать торрент в хорошем качестве
    Свингеры из Палм-Спрингс смотреть онлайн бесплатно в хорошем качестве


    Вы не можете начинать темы
    Вы не можете отвечать на сообщения
    Вы не можете редактировать свои сообщения
    Вы не можете удалять свои сообщения
    Вы не можете голосовать в опросах
    Вы не можете прикреплять файлы к сообщениям
    Вы можете скачивать файлы