Ссылка на приватное зеркало нашего сайта всего за 1$. Внимание количество ограничено!!!

2 сезон

iTunes

iTunes

1

iTunes

iTunes

iTunes

WEBRip

iTunes

30
pack

Вам бонус

ВАЖНО

!!Акция!!

Alien_RageХит недели

RePack

Horizon Zero Dawn

ИГРА 18+

pack

RePack

jed

!!Акция!!

Alien_Rage

RePack

fifa19

RePack

Assassins Creed: Odyssey

RePack

NEED FOR SPEED™ PAYBACK

4 сезон

9 сезон

Бесстыжие 9 сезон

Все сериалы

все сериалы на PB.wtf

RePack

FAR CRY 5
  

Колыбель лжи / Cradle of Lies (Дэвид Уиннинг) [2016, триллер, детектив, HDTVRip 720p] MVO ["Синема УС"] pb.wtf

Колыбель лжи через торрент pb.wtf

Размер: 2.86 GB | Добавлен: 2 года 2 мес. назад | Торрент скачан:14 раз
Скачать  

07-07-2018 18:34 Колыбель лжи Скачать торрент  

Колыбель лжи / Cradle of LiesГод выпуска: 2016
Страна: Канада
Жанр: триллер, детектив
Продолжительность: 01:24:08
Перевод: Любительский (многоголосый) | "Синема УС"
Субтитры: отсутствуют

Режиссер: Дэвид Уиннинг

rating

В ролях:

Локлин Манро, Николь де Бур, Джина Холден, Карин Коновал, Дэн Пэйн, Айрис Куинн, Джейсон Сермак, Джейкоб Рихтер, Джеймс Кидни, Элизабет Вайнштейн

Описание:

Марисса впадает в кому во время беременности. Чудом очнувшись пять лет спустя, она понимает, что за это время у неё должен был родиться малыш, но его нигде нет. Женщина замечает, что у её подруги Хизер есть ребёнок - девочка примерно того же возраста, что и ребёнок Мариссы. Вот только Марисса не помнит, чтобы подруга была беременна пять лет назад.

Качество: HDTVRip 720p
Формат: MKV

Видео: h.264, 4 476 kb/s, 1280x720
Аудио#1: Русский, (AC3, 2 ch, 384 Кбит/с)
скриншот  скриншот  скриншот  

Общее
Уникальный идентификатор : 195481865468052489826473638436827931856 (0x931070158F0834DEA2074D5F8761A4D0)
Полное имя : D:\Wheres.my.baby.2016.P.HDTV.72Op_KOSHARA.mkv
Формат : Matroska
Версия формата : Version 2
Размер файла : 2,86 Гбайт
Продолжительность : 1 ч. 24 м.
Режим общего битрейта : Переменный
Общий поток : 4862 Кбит/сек
Дата кодирования : UTC 2018-07-05 15:44:17
Программа кодирования : mkvmerge v8.3.0 ('Over the Horizon') 64bit
Библиотека кодирования : libebml v1.3.1 + libmatroska v1.4.2

Видео
Идентификатор : 1
Формат : AVC
Формат/Информация : Advanced Video Codec
Профиль формата : High@L4.1
Параметр CABAC формата : Да
Параметр RefFrames формата : 4 кадра
Идентификатор кодека : V_MPEG4/ISO/AVC
Продолжительность : 1 ч. 24 м.
Вид битрейта : Переменный
Битрейт : 4476 Кбит/сек
Максимальный битрейт : 5000 Кбит/сек
Ширина : 1280 пикселей
Высота : 720 пикселей
Соотношение сторон : 16:9
Режим частоты кадров : Постоянный
Частота кадров : 23,976 (24000/1001) кадра/сек
Стандарт вещания : Component
Цветовое пространство : YUV
Субдискретизация насыщенности : 4:2:0
Битовая глубина : 8 бит
Тип развёртки : Прогрессивная
Бит/(Пиксели*Кадры) : 0.198
Размер потока : 2,57 Гбайт (90%)
Default : Да
Forced : Нет
Цветовой диапазон : Limited
Основные цвета : BT.709
Характеристики трансфера : BT.709
Коэффициенты матрицы : BT.709

Аудио
Идентификатор : 2
Формат : AC-3
Формат/Информация : Audio Coding 3
Расширение режима : CM (complete main)
Параметр Endianness формата : Big
Идентификатор кодека : A_AC3
Продолжительность : 1 ч. 24 м.
Вид битрейта : Постоянный
Битрейт : 384 Кбит/сек
Каналы : 2 канала
Расположение каналов : Front: L R
Частота : 48,0 КГц
Частота кадров : 31,250 кадров/сек (1536 spf)
Метод сжатия : С потерями
Размер потока : 231 Мбайт (8%)
Default : Да
Forced : Нет

pb.wtf



Скачать Колыбель лжи через торрент https://img11.lostpic.net/2018/07/07/70d4f3926fbc0a7d486cbf0378ad8e50.jpg Скачать фильм Колыбель лжи через торрент бесплантно в хорошем качестве Описание: Марисса впадает в кому во время беременности. Чудом очнувшись пять лет спустя, она понимает, что за это время у неё должен был ... 9.4 10 5
Торрент: Зарегистрирован [2018-07-07 18:34] · скачан: 14 раз
Статус: T временная
Размер: 2.86 GB
Как cкачать? Как скачать Колыбель лжи через торрент | qTorrent

% Раздел Тема Автор DL S | L
T Фильмы (мультфильмы) cо спонсором показа (Новинки AVI/MKV) [ 1.37 GB ] Колыбель лжи / Cradle of Lies [2016 HDTVRip] MVO ["Синема УС"] bober100 Скачать
1 | 0

28-11-2019 20:33  

Отключить всю рекламу на сайте

    Дорогой пользователь! Огромная просьба, поблагодарите релизера, оцените раздачу и оставьте свои комментарий, если Вы скачали Колыбель лжи через торрент бесплатно! Внесите свою лепту в развитие PiratBit!
    Комментировать посты могут только пользователи прошедшие не сложную регистрацию
    Показать сообщения:    

    Колыбель лжи через торрент
    Скачать бесплатно Колыбель лжи
    Колыбель лжи скачать торрент
    Колыбель лжи смотреть онлайн
    Cкачать фильм Колыбель лжи бесплатно
    Колыбель лжи скачать торрент в хорошем качестве
    Колыбель лжи смотреть онлайн бесплатно в хорошем качестве


    Вы не можете начинать темы
    Вы не можете отвечать на сообщения
    Вы не можете редактировать свои сообщения
    Вы не можете удалять свои сообщения
    Вы не можете голосовать в опросах
    Вы не можете прикреплять файлы к сообщениям
    Вы можете скачивать файлы