Ссылка на приватное зеркало всего за 1$. Внимание количество ограничено!!!

OK

1+1

iTunes

мы

OK

1

WEB-DLRip

Джокер

Пифагор

Ведьмак / The Witcher сериал

iTunes

ПШазам

ОК

Оно 2

iTunes

30
pack

Вам бонус

ВАЖНО

!!Акция!!

Alien_RageХит недели

RePack

Resident Evil 21

ИГРА 18+

pack

RePack

jed

RePack

fifa19

RePack

Assassins Creed: Odyssey

RePack

NEED FOR SPEED™ PAYBACK

4 сезон

9 сезон

Бесстыжие 9 сезон

Все сериалы

все сериалы на PB.wtf

RePack

FAR CRY 5
  

Жестокость / Violent (Эндрю Хукуляк) [2014, драма, WEB-DL 720p] MVO ["Синема УС"] pb.wtf

Жестокость через торрент pb.wtf

Размер: 3.53 GB | Добавлен: 1 год 6 мес. назад | Торрент скачан:19 раз
Скачать  

07-07-2018 20:10 Жестокость Скачать торрент  

Жестокость / ViolentГод выпуска: 2014
Страна: Канада, Норвегия
Жанр: драма
Продолжительность: 01:46:20
Перевод: Любительский (многоголосый) | "Синема УС"
Субтитры: отсутствуют

Режиссер: Эндрю Хукуляк

rating

В ролях:

Дагни Бэкер Джонсен, Мари Софи Андреассен, Карл Бёрд, Брин Бауэн, Томин Миккелин ЭйдеЮ, Тор Хальвор Хальворсен

Описание:

Молодая женщина во время драматичного инцидента вспоминает пятерых людей, которые любили ее больше всего.

Качество: WEB-DL 720p
Формат: MKV

Видео: h.264, 4 368 kb/s, 1280x690
Аудио#1: Русский, (AC3, 2 ch, 384 Кбит/с)
скриншот  скриншот  скриншот  

Общее
Уникальный идентификатор : 174718186552734533351986053802655261062 (0x83717FACD74D1D31A2DCDBC6EFECA186)
Полное имя : D:\Violent.2014.P.WEB-DL.72Op_KOSHARA.mkv
Формат : Matroska
Версия формата : Version 2
Размер файла : 3,53 Гбайт
Продолжительность : 1 ч. 46 м.
Режим общего битрейта : Переменный
Общий поток : 4754 Кбит/сек
Дата кодирования : UTC 2018-07-05 15:47:41
Программа кодирования : mkvmerge v8.3.0 ('Over the Horizon') 64bit
Библиотека кодирования : libebml v1.3.1 + libmatroska v1.4.2

Видео
Идентификатор : 1
Формат : AVC
Формат/Информация : Advanced Video Codec
Профиль формата : High@L4.1
Параметр CABAC формата : Да
Параметр RefFrames формата : 4 кадра
Идентификатор кодека : V_MPEG4/ISO/AVC
Продолжительность : 1 ч. 46 м.
Вид битрейта : Переменный
Битрейт : 4368 Кбит/сек
Максимальный битрейт : 5000 Кбит/сек
Ширина : 1280 пикселей
Высота : 690 пикселей
Соотношение сторон : 1,85:1
Режим частоты кадров : Постоянный
Частота кадров : 23,976 (24000/1001) кадра/сек
Стандарт вещания : Component
Цветовое пространство : YUV
Субдискретизация насыщенности : 4:2:0
Битовая глубина : 8 бит
Тип развёртки : Прогрессивная
Бит/(Пиксели*Кадры) : 0.202
Размер потока : 3,18 Гбайт (90%)
Default : Да
Forced : Нет
Цветовой диапазон : Limited
Основные цвета : BT.709
Характеристики трансфера : BT.709
Коэффициенты матрицы : BT.709

Аудио
Идентификатор : 2
Формат : AC-3
Формат/Информация : Audio Coding 3
Расширение режима : CM (complete main)
Параметр Endianness формата : Big
Идентификатор кодека : A_AC3
Продолжительность : 1 ч. 46 м.
Вид битрейта : Постоянный
Битрейт : 384 Кбит/сек
Каналы : 2 канала
Расположение каналов : Front: L R
Частота : 48,0 КГц
Частота кадров : 31,250 кадров/сек (1536 spf)
Метод сжатия : С потерями
Размер потока : 292 Мбайт (8%)
Default : Да
Forced : Нет

pb.wtf



Скачать Жестокость через торрент https://img11.lostpic.net/2018/07/07/61efecb8f748767ce0797e7a104b5ae4.jpg Скачать фильм Жестокость через торрент бесплантно в хорошем качестве Описание: Молодая женщина во время драматичного инцидента вспоминает пятерых людей, которые любили ее больше ... 10 10 3
Торрент: Зарегистрирован [2018-07-07 20:10] · скачан: 19 раз
Статус: T временная
Размер: 3.53 GB
Как cкачать? Как скачать Жестокость через торрент | qTorrent

% Раздел Тема Автор DL S | L
T Фильмы (мультфильмы) cо спонсором показа (Новинки AVI/MKV) [ 1.37 GB ] Жестокость / Violent [2014 WEB-DLRip] MVO ["Синема УС"] bober100 Скачать
1 | 0
Фильмы [HD 720p, 1080p] (Хороший звук DUB, MVO) [ 6.11 GB ] Самый жестокий год / A Most Violent Year [2014 ОАЭ BDRip 720p] DVO + VO +Original + Subs от R.G. PiratFilms Messa-fan Скачать
1 | 0
T Фильмы 2014 [DVDrip, WEB-DLRip, HDrip] [ 2.19 GB ] Самый жестокий год / A Most Violent Year [2014 HDRip Любительский одноголосый] vitaha1982 Скачать
1 | 0
T Фильмы без перевода [ 1.62 GB ] Самый жестокий год / A Most Violent Year [2014 DVDScreener Отсутствует] Ворон Скачать
1 | 0
Фильмы 2010 [ 1.33 GB ] Жестокий вид / The Violent Kind [2010 DVDRip] m9sо Скачать
1 | 0
Азиатские фильмы [ 1.39 GB ] Погибшие жестокой смертью / Die a Violent Death / Tai hong [2010 Таиланд DVDRip] VO aspace Скачать
1 | 0

28-11-2019 20:33  

Отключить всю рекламу на сайте

    Дорогой пользователь! Огромная просьба, поблагодарите релизера, оцените раздачу и оставьте свои комментарий, если Вы скачали Жестокость через торрент бесплатно! Внесите свою лепту в развитие PiratBit!
    Комментировать посты могут только пользователи прошедшие не сложную регистрацию
    Показать сообщения:    

    Жестокость через торрент
    Скачать бесплатно Жестокость
    Жестокость скачать торрент
    Жестокость смотреть онлайн
    Cкачать фильм Жестокость бесплатно
    Жестокость скачать торрент в хорошем качестве
    Жестокость смотреть онлайн бесплатно в хорошем качестве


    Вы не можете начинать темы
    Вы не можете отвечать на сообщения
    Вы не можете редактировать свои сообщения
    Вы не можете удалять свои сообщения
    Вы не можете голосовать в опросах
    Вы не можете прикреплять файлы к сообщениям
    Вы можете скачивать файлы