Ссылка на приватное зеркало всего за 1$. Внимание количество ограничено!!!

OK

1+1

iTunes

мы

OK

1

WEB-DLRip

Джокер

Пифагор

Ведьмак / The Witcher сериал

iTunes

ПШазам

ОК

Оно 2

iTunes

30
pack

Вам бонус

ВАЖНО

!!Акция!!

Alien_RageХит недели

RePack

Resident Evil 21

ИГРА 18+

pack

RePack

jed

RePack

fifa19

RePack

Assassins Creed: Odyssey

RePack

NEED FOR SPEED™ PAYBACK

4 сезон

9 сезон

Бесстыжие 9 сезон

Все сериалы

все сериалы на PB.wtf

RePack

FAR CRY 5
  

Сделано в трейлере / Trailer Made (Джакобас Криэль) [2016, Приключения, WEB-DL 720p] MVO ["Синема УС"] pb.wtf

Сделано в трейлере через торрент pb.wtf

Размер: 2.87 GB | Добавлен: 1 год 6 мес. назад | Торрент скачан:8 раз
Скачать  

07-07-2018 20:36 Сделано в трейлере Скачать торрент  

Сделано в трейлере / Trailer MadeГод выпуска: 2016
Страна: ЮАР
Жанр: Приключения
Продолжительность: 01:24:24
Перевод: Любительский (многоголосый) | "Синема УС"
Субтитры: отсутствуют

Режиссер: Джакобас Криэль

rating

В ролях:

Тайлер Понграц, Зухание Сигвела, Мерле Шенк, Квези Кобус, Хейк Бруннер, Ли Равив, Тапива Мусвосви, Адам Нилл, Вернер Бота, Ариэль Шенк, Роксанна Кали.

Описание:

Все попытки Люси Дэвис помочь своему брату Даниэлю выучить свою роль в школьном спектакле заканчиваются ничем. По мнению сестры, ее брат не творческая натура. Но судьба решила дать главному герою еще один шанс. Даниэль вместе с отцом приезжает в Южную Африку. И в аэропорту глава семьи умудряется потерять все деньги и документы. После небольших мытарств наши герои оказываются в прямом смысле на свалке. Здесь Даниэль знакомится с очень смышлёным и творчески одаренным сверстником - Асандой.

Качество: WEB-DL 720p
Формат: MKV

Видео: h.264, 4389 kb/s, 1280x544
Аудио#1: Русский, (AC3, 2 ch, 384 Кбит/с)
скриншот  скриншот  скриншот  

Общее
Уникальный идентификатор : 186984400881038189557187819648975489798 (0x8CABE2BBDC0E0EAA8A850FE6A1B9CB06)
Полное имя : D:\Trailer.Made.2016.P.WEB-DL.72Op_KOSHARA.mkv
Формат : Matroska
Версия формата : Version 2
Размер файла : 2,87 Гбайт
Продолжительность : 1 ч. 24 м.
Режим общего битрейта : Переменный
Общий поток : 4870 Кбит/сек
Дата кодирования : UTC 2018-07-05 10:20:15
Программа кодирования : mkvmerge v8.3.0 ('Over the Horizon') 64bit
Библиотека кодирования : libebml v1.3.1 + libmatroska v1.4.2

Видео
Идентификатор : 1
Формат : AVC
Формат/Информация : Advanced Video Codec
Профиль формата : High@L4.1
Параметр CABAC формата : Да
Параметр RefFrames формата : 4 кадра
Идентификатор кодека : V_MPEG4/ISO/AVC
Продолжительность : 1 ч. 24 м.
Вид битрейта : Переменный
Битрейт : 4389 Кбит/сек
Максимальный битрейт : 5000 Кбит/сек
Ширина : 1280 пикселей
Высота : 544 пикселя
Соотношение сторон : 2,35:1
Режим частоты кадров : Постоянный
Частота кадров : 23,976 (24000/1001) кадра/сек
Стандарт вещания : Component
Цветовое пространство : YUV
Субдискретизация насыщенности : 4:2:0
Битовая глубина : 8 бит
Тип развёртки : Прогрессивная
Бит/(Пиксели*Кадры) : 0.263
Размер потока : 2,59 Гбайт (90%)
Default : Да
Forced : Нет
Цветовой диапазон : Limited
Основные цвета : BT.709
Характеристики трансфера : BT.709
Коэффициенты матрицы : BT.709

Аудио
Идентификатор : 2
Формат : AC-3
Формат/Информация : Audio Coding 3
Расширение режима : CM (complete main)
Параметр Endianness формата : Big
Идентификатор кодека : A_AC3
Продолжительность : 1 ч. 24 м.
Вид битрейта : Постоянный
Битрейт : 384 Кбит/сек
Каналы : 2 канала
Расположение каналов : Front: L R
Частота : 48,0 КГц
Частота кадров : 31,250 кадров/сек (1536 spf)
Метод сжатия : С потерями
Размер потока : 232 Мбайт (8%)
Default : Да
Forced : Нет

pb.wtf



Скачать Сделано в трейлере через торрент https://img11.lostpic.net/2018/07/07/bd4db899d4b0616ea795a45b11e98ada.jpg Скачать фильм Сделано в трейлере через торрент бесплантно в хорошем качестве Описание: Все попытки Люси Дэвис помочь своему брату Даниэлю выучить свою роль в школьном спектакле заканчиваются ничем. По мнению сестры, ... 7 10 3
Торрент: Зарегистрирован [2018-07-07 20:36] · скачан: 8 раз
Статус: T временная
Размер: 2.87 GB
Как cкачать? Как скачать Сделано в трейлере через торрент | qTorrent

% Раздел Тема Автор DL S | L
T Фильмы (мультфильмы) cо спонсором показа (Новинки AVI/MKV) [ 1.37 GB ] Сделано в трейлере / Trailer Made [2016 WEB-DLRip] MVO ["Синема УС"] bober100 Скачать
1 | 0

28-11-2019 20:33  

Отключить всю рекламу на сайте

    Дорогой пользователь! Огромная просьба, поблагодарите релизера, оцените раздачу и оставьте свои комментарий, если Вы скачали Сделано в трейлере через торрент бесплатно! Внесите свою лепту в развитие PiratBit!
    Комментировать посты могут только пользователи прошедшие не сложную регистрацию
    Показать сообщения:    

    Сделано в трейлере через торрент
    Скачать бесплатно Сделано в трейлере
    Сделано в трейлере скачать торрент
    Сделано в трейлере смотреть онлайн
    Cкачать фильм Сделано в трейлере бесплатно
    Сделано в трейлере скачать торрент в хорошем качестве
    Сделано в трейлере смотреть онлайн бесплатно в хорошем качестве


    Вы не можете начинать темы
    Вы не можете отвечать на сообщения
    Вы не можете редактировать свои сообщения
    Вы не можете удалять свои сообщения
    Вы не можете голосовать в опросах
    Вы не можете прикреплять файлы к сообщениям
    Вы можете скачивать файлы