2 сезон

iTunes

MVO

1

2 сезон

iTunes

iTunes

1 сезон

RePack

30

Ultimate

ВАЖНО

ИГРА 18+

pack

RePack

MK11
pack

Легкие деньги

RePack

jed

RePack

fifa19

RePack

RDR2

RePack

NEED FOR SPEED™ PAYBACK

4 сезон

9 сезон

Бесстыжие 9 сезон

Все сериалы

все сериалы на PB.wtf

RePack

FAR CRY 5

Anonymous, добрый вечер, мы не успеваем собрать деньги на оплату серверов за декабрь и январь, помогите нам пожалуйста в это трудное время. В качестве благодарности мы отключим Вам всю рекламу на сайте (укажите свой ник в строку Ваше имя)!

×
  
Magnet ссылка

Тихое место / A Quiet Place (Джон Красински) [2018 г., Ужасы, триллер, драма, UHD BDRip 2160p] DUB (rus, ukr) + MVO [HDRezka Studio] pb.wtf

Тихое место через торрент pb.wtf

Размер: 16.71 GB | Добавлен: 2 года 5 мес. назад | Торрент скачан:118 раз
Скачать  

08-07-2018 02:16 Тихое место Скачать торрент  

Тихое место / A Quiet Place«Тсссс! Если хочешь выжить - не издавай ни звука» Год выпуска: 2018
Страна: США
Жанр: Ужасы, триллер, драма
Продолжительность: 01:30:14
Перевод: Дублированный [Лицензия], Профессиональный многоголосый | HDRezka Studio
Субтитры: Русские, английские
Режиссер: Джон Красински
В ролях:

Эмили Блант (Evelyn Abbott), Джон Красински (Lee Abbott), Милли Симмондс (Regan Abbott), Ноа Джуп (Marcus Abbott), Кейд Вудворд (Beau Abbott), Леон Рассом (Man in the Woods), Дорис МакКарти (Woman in the Woods, в титрах не указана), Рода Пелл (Old Man's Dead Wife, в титрах не указана)
Описание:
История одной семьи, которая проживает в небольшой уединённой ферме в далёкой американской глубинке. У главных героев есть двое детей. Казалось бы, жизнь этих людей совершенно не отличается от жизни других таких семей. Но главные герои живут в доме, который наполнен ужасными монстрами, реагирующими на любой звук. Герои разучили целый комплекс специальных жестов, которые помогают им общаться друг с другом, не издавая ни единого звука. Кроме того, каждый из членов семьи должен очень тихо передвигаться по всей территории дома, чтобы опасные существа не заметили их. Однако дом, где живут маленькие дети, не может быть самым тихим местом на земле.
Рейтинг:

MPAA: PG-13 - Детям до 13 лет просмотр не желателен
Качество: UHD BDRip 2160p
Формат: MKV
Видео: HEVC, HDR, 20700 Kбит/с, 3840x1600, 23.976 Кадр/с
Аудио 1: АС3, 6 ch, 48 kHz, 640 kbps Русский Blu-ray EUR
Аудио 2: АС3, 6 ch, 48 kHz, 384 kbps Русский HDRezka Studi
Аудио 3: АС3, 2 ch, 48 kHz, 192 kbps Украинский
Аудио 4: TrueHD+Atmos, 8 ch, 48 kHz, 3890 kbps Английский
Аудио 5: АС3, 6 ch, 48 kHz, 640 kbps Английский
Навигация по главам: Есть
Общее
Уникальный идентификатор : 179996106334522491918410683115710973531 (0x8769FD3611A63842839896F1E2AC065B)
Полное имя : G:\A.Quiet.Place.2018.2160p.X265.10bit.HDR.Master5.mkv
Формат : Matroska
Версия формата : Version 4 / Version 2
Размер файла : 16,7 Гбайт
Продолжительность : 1 ч. 30 м.
Режим общего битрейта : Переменный
Общий поток : 26,5 Мбит/сек
Название фильма : A.Quiet.Place.2018.2160p.X265.10bit.HDR.Master5
Дата кодирования : UTC 2018-07-29 21:17:00
Программа кодирования : mkvmerge v7.9.0 ('Birds') 64bit
Библиотека кодирования : libebml v1.3.1 + libmatroska v1.4.2

Видео
Идентификатор : 1
Формат : HEVC
Формат/Информация : High Efficiency Video Coding
Коммерческое название : HDR10
Профиль формата : Main 10@L5.1@High
Идентификатор кодека : V_MPEGH/ISO/HEVC
Продолжительность : 1 ч. 30 м.
Битрейт : 20,7 Мбит/сек
Ширина : 3840 пикселей
Высота : 1600 пикселей
Соотношение сторон : 2,40:1
Режим частоты кадров : Постоянный
Частота кадров : 23,976 (24000/1001) кадра/сек
Цветовое пространство : YUV
Субдискретизация насыщенности : 4:2:0 (Type 2)
Битовая глубина : 10 бит
Бит/(Пиксели*Кадры) : 0.140
Размер потока : 13,0 Гбайт (78%)
Заголовок : A.Quiet.Place.2018.2160p.X265.10bit.HDR.Master5
Библиотека кодирования : x265 2.8+10-703eade86b53:[Windows][GCC 8.1.0][64 bit] 10bit
Настройки программы : cpuid=1176575 / frame-threads=5 / numa-pools=32 / wpp / no-pmode / no-pme / no-psnr / no-ssim / log-level=2 / input-csp=1 / input-res=3840x1600 / interlace=0 / total-frames=129826 / level-idc=51 / high-tier=1 / uhd-bd=0 / ref=4 / no-allow-non-conformance / repeat-headers / annexb / aud / hrd / info / hash=0 / no-temporal-layers / no-open-gop / min-keyint=24 / keyint=240 / gop-lookahead=0 / bframes=4 / b-adapt=2 / b-pyramid / bframe-bias=0 / rc-lookahead=25 / lookahead-slices=4 / scenecut=40 / radl=0 / no-intra-refresh / ctu=64 / min-cu-size=8 / rect / no-amp / max-tu-size=32 / tu-inter-depth=1 / tu-intra-depth=1 / limit-tu=0 / rdoq-level=2 / dynamic-rd=0.00 / no-ssim-rd / signhide / no-tskip / nr-intra=0 / nr-inter=0 / no-constrained-intra / no-strong-intra-smoothing / max-merge=3 / limit-refs=3 / limit-modes / me=3 / subme=3 / merange=57 / temporal-mvp / weightp / no-weightb / no-analyze-src-pics / deblock=-3:-3 / no-sao / no-sao-non-deblock / rd=4 / no-early-skip / rskip / no-fast-intra / no-tskip-fast / no-cu-lossless / no-b-intra / no-splitrd-skip / rdpenalty=0 / psy-rd=2.00 / psy-rdoq=1.00 / no-rd-refine / no-lossless / cbqpoffs=0 / crqpoffs=0 / rc=crf / crf=17.0 / qcomp=0.60 / qpstep=4 / stats-write=0 / stats-read=0 / vbv-maxrate=160000 / vbv-bufsize=160000 / vbv-init=0.9 / crf-max=0.0 / crf-min=0.0 / ipratio=1.40 / pbratio=1.30 / aq-mode=1 / aq-strength=1.00 / cutree / zone-count=0 / no-strict-cbr / qg-size=32 / no-rc-grain / qpmax=69 / qpmin=0 / no-const-vbv / sar=1 / overscan=0 / videoformat=5 / range=0 / colorprim=9 / transfer=16 / colormatrix=9 / chromaloc=1 / chromaloc-top=2 / chromaloc-bottom=2 / display-window=0 / master-display=G(13250,34500)B(7500,3000)R(34000,16000)WP(15635,16450)L(10000000,1) / max-cll=0,0 / min-luma=0 / max-luma=1023 / log2-max-poc-lsb=8 / vui-timing-info / vui-hrd-info / slices=1 / no-opt-qp-pps / no-opt-ref-list-length-pps / no-multi-pass-opt-rps / scenecut-bias=0.05 / no-opt-cu-delta-qp / no-aq-motion / hdr / hdr-opt / no-dhdr10-opt / no-idr-recovery-sei / analysis-reuse-level=5 / scale-factor=0 / refine-intra=0 / refine-inter=0 / refine-mv=0 / no-limit-sao / ctu-info=0 / no-lowpass-dct / refine-mv-type=0 / copy-pic=1 / max-ausize-factor=1.0 / no-dynamic-refine / no-single-sei
Default : Да
Forced : Нет
Цветовой диапазон : Limited
Основные цвета : BT.2020
Характеристики трансфера : PQ
Коэффициенты матрицы : BT.2020 non-constant
MasteringDisplay_ColorPrimaries : Display P3
MasteringDisplay_Luminance : min: 0.0001 cd/m2, max: 1000 cd/m2

Аудио #1
Идентификатор : 2
Формат : AC-3
Формат/Информация : Audio Coding 3
Идентификатор кодека : A_AC3
Продолжительность : 1 ч. 30 м.
Вид битрейта : Постоянный
Битрейт : 640 Кбит/сек
Каналы : 6 каналов
Расположение каналов : Front: L C R, Side: L R, LFE
Частота : 48,0 КГц
Частота кадров : 31,250 кадров/сек (1536 SPF)
Битовая глубина : 16 бит
Метод сжатия : С потерями
Размер потока : 413 Мбайт (2%)
Язык : Russian
ServiceKind/String : Complete Main
Default : Да
Forced : Нет

Аудио #2
Идентификатор : 3
Формат : AC-3
Формат/Информация : Audio Coding 3
Идентификатор кодека : A_AC3
Продолжительность : 1 ч. 30 м.
Вид битрейта : Постоянный
Битрейт : 384 Кбит/сек
Каналы : 6 каналов
Расположение каналов : Front: L C R, Side: L R, LFE
Частота : 48,0 КГц
Частота кадров : 31,250 кадров/сек (1536 SPF)
Битовая глубина : 16 бит
Метод сжатия : С потерями
Размер потока : 248 Мбайт (1%)
Заголовок : HDRezka StudioB
Язык : Russian
ServiceKind/String : Complete Main
Default : Нет
Forced : Нет

Аудио #3
Идентификатор : 4
Формат : AC-3
Формат/Информация : Audio Coding 3
Идентификатор кодека : A_AC3
Продолжительность : 1 ч. 30 м.
Вид битрейта : Постоянный
Битрейт : 192 Кбит/сек
Каналы : 2 канала
Расположение каналов : Front: L R
Частота : 48,0 КГц
Частота кадров : 31,250 кадров/сек (1536 SPF)
Битовая глубина : 16 бит
Метод сжатия : С потерями
Размер потока : 124 Мбайт (1%)
Язык : Ukrainian
ServiceKind/String : Complete Main
Default : Нет
Forced : Нет

Аудио #4
Идентификатор : 5
Формат : TrueHD
Профиль формата : TrueHD+Atmos / TrueHD
Идентификатор кодека : A_TRUEHD
Продолжительность : 1 ч. 30 м.
Вид битрейта : Переменный
Битрейт : 3890 Кбит/сек
Максимальный битрейт : 8064 Кбит/сек
Каналы : Object Based / 8 каналов
Расположение каналов : Object Based / Front: L C R, Side: L R, Back: L R, LFE
Частота : / 48,0 КГц
Частота кадров : 1200,000 кадров/сек (40 SPF)
Метод сжатия : Без потерь
Размер потока : 2,45 Гбайт (15%)
Заголовок : Atmos 7.1
Язык : English
Default : Нет
Forced : Нет

Аудио #5
Идентификатор : 6
Формат : AC-3
Формат/Информация : Audio Coding 3
Идентификатор кодека : A_AC3
Продолжительность : 1 ч. 30 м.
Вид битрейта : Постоянный
Битрейт : 640 Кбит/сек
Каналы : 6 каналов
Расположение каналов : Front: L C R, Side: L R, LFE
Частота : 48,0 КГц
Частота кадров : 31,250 кадров/сек (1536 SPF)
Битовая глубина : 16 бит
Метод сжатия : С потерями
Размер потока : 413 Мбайт (2%)
Заголовок : AC-3 5.1
Язык : English
ServiceKind/String : Complete Main
Default : Нет
Forced : Нет

Текст #1
Идентификатор : 7
Формат : UTF-8
Идентификатор кодека : S_TEXT/UTF8
Идентификатор кодека/Информация : UTF-8 Plain Text
Продолжительность : 1 ч. 19 м.
Битрейт : 6 бит/сек
ElementCount : 94
Размер потока : 3,68 Кбайт (0%)
Заголовок : Forced
Язык : Russian
Default : Да
Forced : Нет

Текст #2
Идентификатор : 8
Формат : UTF-8
Идентификатор кодека : S_TEXT/UTF8
Идентификатор кодека/Информация : UTF-8 Plain Text
Продолжительность : 1 ч. 19 м.
Битрейт : 9 бит/сек
ElementCount : 138
Размер потока : 5,41 Кбайт (0%)
Заголовок : Full
Язык : Russian
Default : Нет
Forced : Нет

Текст #3
Идентификатор : 9
Формат : UTF-8
Идентификатор кодека : S_TEXT/UTF8
Идентификатор кодека/Информация : UTF-8 Plain Text
Продолжительность : 1 ч. 11 м.
Битрейт : 5 бит/сек
ElementCount : 168
Размер потока : 2,94 Кбайт (0%)
Заголовок : Full
Язык : English
Default : Нет
Forced : Нет

Текст #4
Идентификатор : 10
Формат : UTF-8
Идентификатор кодека : S_TEXT/UTF8
Идентификатор кодека/Информация : UTF-8 Plain Text
Продолжительность : 1 ч. 22 м.
Битрейт : 9 бит/сек
ElementCount : 340
Размер потока : 5,61 Кбайт (0%)
Заголовок : SDH
Язык : English
Default : Нет
Forced : Нет

Меню
00:00:00.000 : en:00:00:00.000
00:10:19.118 : en:00:10:19.118
00:14:38.002 : en:00:14:38.002
00:21:52.895 : en:00:21:52.895
00:25:09.675 : en:00:25:09.675
00:31:05.155 : en:00:31:05.155
00:36:23.390 : en:00:36:23.390
00:43:47.291 : en:00:43:47.291
00:47:42.693 : en:00:47:42.693
00:53:48.183 : en:00:53:48.183
01:00:31.419 : en:01:00:31.419
01:05:55.368 : en:01:05:55.368
01:10:57.837 : en:01:10:57.837
01:15:29.108 : en:01:15:29.108
01:23:47.272 : en:01:23:47.272
pb.wtf



Скачать Тихое место через торрент https://b.radikal.ru/b11/1807/be/d9378d6da850.jpg Скачать фильм Тихое место через торрент бесплантно в хорошем качестве Описание: История одной семьи, которая проживает в небольшой уединённой ферме в далёкой американской глубинке. У главных героев есть двое ... 10 10 7
Торрент: Зарегистрирован [2018-07-30 12:36] · скачан: 118 раз
Статус: √ проверено
Размер: 16.71 GB
Как cкачать? Как скачать Тихое место через торрент | UTorrent

% Раздел Тема Автор DL S | L
Фильмы 2018 [DVDrip, WEB-DLRip, HDrip] (DUB, MVO) [ 1.68 GB ] Тихое место / A Quiet Place [2018 BDRip-AVC] MVO [HDrezka Studio] +DUB [] bober100 Скачать
1 | 0
Фильмы [HD 720p, 1080p] (Хороший звук DUB, MVO) [ 4.83 GB ] Тихое место / A Quiet Place [2018 BDRip 720p] MVO [HDRezka Studio] +DUB [] bober100 Скачать
3 | 0
Фильмы [HD 720p, 1080p] (Хороший звук DUB, MVO) [ 9.88 GB ] Тихое место / A Quiet Place [2018 BDRip 1080p] MVO [HDRezka Studio] +DUB [] bober100 Скачать
4 | 0
Фильмы (Blu-ray, BD-Remux, HDDVD) [ 18.87 GB ] Тихое место / A Quiet Place [2018 BD Remux 1080p] MVO [HDRezka Studio] +DUB [] bober100 Скачать
1 | 0
Ultra HD (UHD: 2K, 4K, 8K) — видео сверхвысокой чёткости [ 45.33 GB ] Тихое место / A Quiet Place [2018 UHD BDRemux 2160p] DUB + MVO [HDRezka Studio] sheker187 Скачать
1 | 0
Фильмы (WEB-DL 720p, 1080p) [ 7.14 GB ] Тихое место / A Quiet Place [2018 WEB-DL 1080p] [AMAZON Version] MVO [HDrezka Studio] bober100 Скачать
1 | 0
Фильмы 2018 [DVDrip, WEB-DLRip, HDrip] (DUB, MVO) [ 1.46 GB ] Тихое место / A Quiet Place [2018 WEB-DLRip] MVO [HDrezka Studio] bober100 Скачать
1 | 0


Последний раз редактировалось: sheker187 (2018-07-30 12:37), всего редактировалось 2 раз(а)

28-11-2019 20:33  

Отключить всю рекламу на сайте

08-07-2018 06:24 Тихое место Скачать торрент  

Да поскорей бы уже бубляж!pb.wtf



30-07-2018 12:36 Тихое место Скачать торрент  

Лицензияpb.wtf



    Дорогой пользователь! Огромная просьба, поблагодарите релизера, оцените раздачу и оставьте свои комментарий, если Вы скачали Тихое место через торрент бесплатно! Внесите свою лепту в развитие PiratBit!
    Комментировать посты могут только пользователи прошедшие не сложную регистрацию
    Показать сообщения:    

    Тихое место через торрент
    Скачать бесплатно Тихое место
    Тихое место скачать торрент
    Тихое место смотреть онлайн
    Cкачать фильм Тихое место бесплатно
    Тихое место скачать торрент в хорошем качестве
    Тихое место смотреть онлайн бесплатно в хорошем качестве


    Вы не можете начинать темы
    Вы не можете отвечать на сообщения
    Вы не можете редактировать свои сообщения
    Вы не можете удалять свои сообщения
    Вы не можете голосовать в опросах
    Вы не можете прикреплять файлы к сообщениям
    Вы можете скачивать файлы