Ссылка на приватное зеркало всего за 1$. Внимание количество ограничено!!!

OK

1+1

iTunes

мы

OK

1

WEB-DLRip

Джокер

Пифагор

Ведьмак / The Witcher сериал

iTunes

ПШазам

ОК

Оно 2

iTunes

30
pack

Вам бонус

ВАЖНО

!!Акция!!

Alien_RageХит недели

RePack

Resident Evil 21

ИГРА 18+

pack

RePack

jed

RePack

fifa19

RePack

Assassins Creed: Odyssey

RePack

NEED FOR SPEED™ PAYBACK

4 сезон

9 сезон

Бесстыжие 9 сезон

Все сериалы

все сериалы на PB.wtf

RePack

FAR CRY 5
  

Безумный гений / Mad Genius / Mindhack: savetheworld (Ройс Горсач) [2017, Фантастика, WEB-DL 720p] MVO ["Синема УС"] pb.wtf

Безумный гений через торрент pb.wtf

Размер: 3.1 GB | Добавлен: 1 год 6 мес. назад | Торрент скачан:101 раз
Скачать  

08-07-2018 07:50 Безумный гений Скачать торрент  

Безумный гений / Mad Genius / Mindhack: savetheworld
Год выпуска: 2017
Страна: США
Жанр: Фантастика
Продолжительность: 01:30:40
Перевод: Любительский (многоголосый) | "Синема УС"
Субтитры: отсутствуют

Режиссер: Ройс Горсач

rating

В ролях:

Спенсер Лок, Скотт Мехловиц, Фаран Таир, Гбенга Акиннагбе, Леви Трэн, Крис Мэйсон, Темина Санни, Брэндон Скотт, Клемент Тинаж, Джонни Отто

Описание:

Главный герой - молодой безумный гений - пытается "взломать" человеческий мозг, чтобы исправить всё человечество, которое, по его мнению, просто устарело и необходимо "обновить" его, чтобы избавиться от всех его недостатков.

Качество: WEB-DL 720p
Формат: MKV

Видео: h.264, 4 516 kb/s, 1280x484
Аудио#1: Русский, (AC3, 2 ch, 384 Кбит/с)
скриншот  скриншот  скриншот  

Общее
Уникальный идентификатор : 208650042247909487904369077241641854321 (0x9CF889533BC0DFA7A058C6F85B3E6571)
Полное имя : D:\Mindhack.savetheworld.2017.P.WEB-DL.72Op_KOSHARA.mkv
Формат : Matroska
Версия формата : Version 2
Размер файла : 3,10 Гбайт
Продолжительность : 1 ч. 30 м.
Режим общего битрейта : Переменный
Общий поток : 4902 Кбит/сек
Дата кодирования : UTC 2018-07-05 08:15:56
Программа кодирования : mkvmerge v8.3.0 ('Over the Horizon') 64bit
Библиотека кодирования : libebml v1.3.1 + libmatroska v1.4.2

Видео
Идентификатор : 1
Формат : AVC
Формат/Информация : Advanced Video Codec
Профиль формата : High@L4.1
Параметр CABAC формата : Да
Параметр RefFrames формата : 4 кадра
Идентификатор кодека : V_MPEG4/ISO/AVC
Продолжительность : 1 ч. 30 м.
Вид битрейта : Переменный
Битрейт : 4516 Кбит/сек
Максимальный битрейт : 5000 Кбит/сек
Ширина : 1280 пикселей
Высота : 484 пикселя
Соотношение сторон : 2,645
Режим частоты кадров : Постоянный
Частота кадров : 23,976 (24000/1001) кадра/сек
Стандарт вещания : Component
Цветовое пространство : YUV
Субдискретизация насыщенности : 4:2:0
Битовая глубина : 8 бит
Тип развёртки : Прогрессивная
Бит/(Пиксели*Кадры) : 0.298
Размер потока : 2,80 Гбайт (90%)
Default : Да
Forced : Нет
Цветовой диапазон : Limited
Основные цвета : BT.709
Характеристики трансфера : BT.709
Коэффициенты матрицы : BT.709

Аудио
Идентификатор : 2
Формат : AC-3
Формат/Информация : Audio Coding 3
Расширение режима : CM (complete main)
Параметр Endianness формата : Big
Идентификатор кодека : A_AC3
Продолжительность : 1 ч. 30 м.
Вид битрейта : Постоянный
Битрейт : 384 Кбит/сек
Каналы : 2 канала
Расположение каналов : Front: L R
Частота : 48,0 КГц
Частота кадров : 31,250 кадров/сек (1536 spf)
Метод сжатия : С потерями
Размер потока : 249 Мбайт (8%)
Default : Да
Forced : Нет

pb.wtf



Скачать Безумный гений через торрент https://img11.lostpic.net/2018/07/08/522e861618c21bb29bb3311a81bdc70c.jpg Скачать фильм Безумный гений через торрент бесплантно в хорошем качестве Описание: Главный герой - молодой безумный гений - пытается "взломать" человеческий мозг, чтобы исправить всё человечество, которое, по его ... 8 10 9
Торрент: Зарегистрирован [2018-07-08 07:50] · скачан: 101 раз
Статус: T временная
Размер: 3.1 GB
Как cкачать? Как скачать Безумный гений через торрент | qTorrent

% Раздел Тема Автор DL S | L
T Фильмы (мультфильмы) cо спонсором показа (Новинки AVI/MKV) [ 1.37 GB ] Безумный гений / Mad Genius / Mindhack: savetheworld [2017 WEB-DLRip] MVO ["Синема УС"] bober100 Скачать
1 | 0


Последний раз редактировалось: bober100 (2018-07-08 10:18), всего редактировалось 1 раз

28-11-2019 20:33  

Отключить всю рекламу на сайте

08-07-2018 08:08 Безумный гений Скачать торрент  

bober100, 2 скрина одинаковыхpb.wtf



25-07-2018 17:12 Безумный гений Скачать торрент  

Фильм - бобма!pb.wtf



    Дорогой пользователь! Огромная просьба, поблагодарите релизера, оцените раздачу и оставьте свои комментарий, если Вы скачали Безумный гений через торрент бесплатно! Внесите свою лепту в развитие PiratBit!
    Комментировать посты могут только пользователи прошедшие не сложную регистрацию
    Показать сообщения:    

    Безумный гений через торрент
    Скачать бесплатно Безумный гений
    Безумный гений скачать торрент
    Безумный гений смотреть онлайн
    Cкачать фильм Безумный гений бесплатно
    Безумный гений скачать торрент в хорошем качестве
    Безумный гений смотреть онлайн бесплатно в хорошем качестве


    Вы не можете начинать темы
    Вы не можете отвечать на сообщения
    Вы не можете редактировать свои сообщения
    Вы не можете удалять свои сообщения
    Вы не можете голосовать в опросах
    Вы не можете прикреплять файлы к сообщениям
    Вы можете скачивать файлы