Ссылка на приватное зеркало нашего сайта всего за 1$. Внимание количество ограничено!!!

2 сезон

iTunes

1 сезон

1

iTunes

iTunes

iTunes

1 сезон

RePack

30

ИГРА 18+

pack

ВАЖНО

!!Акция!!

Alien_RageХит недели

RePack

MK11
pack

Забери бонус

RePack

jed

!!Акция!!

Alien_Rage

RePack

fifa19

RePack

Assassins Creed: Odyssey

RePack

NEED FOR SPEED™ PAYBACK

4 сезон

9 сезон

Бесстыжие 9 сезон

Все сериалы

все сериалы на PB.wtf

RePack

FAR CRY 5
  

Семейный дом / Сезон: 1 / Серии: 1-12 из 12 (Влад Фурман) [2010, Мелодрама, SATRip] pb.wtf

Семейный дом через торрент pb.wtf

Размер: 6.46 GB | Добавлен: 2 года 3 мес. назад | Торрент скачан:38 раз
Скачать  

08-07-2018 12:03 Семейный дом Скачать торрент  

Семейный дом
Год выпуска: 2010
Страна: Россия
Жанр: Мелодрама
Продолжительность: 00:50:00
Субтитры: отсутствуют

Режиссер: Влад Фурман

rating

В ролях:

Виктория Толстоганова, Андрей Мерзликин, Михаил Пореченков, Анна Самохина, Владимир Селезнёв (II), Светлана Крючкова, Валентин Гафт, Татьяна Колганова, Неля Попова, Михаил Трясоруков

Описание:

Рассказ о пяти детях-сиротах. Их адаптация к обычной жизни проходит с трудом, они шалят, воруют овощи с соседних огородов.

Качество: SATRip
Формат: AVI

Видео: 704x400 (16:9), 25 fps, XviD MPEG-4 Visual, ~1357 kbps avg, ~ 0.193 bit/pixel
Аудио: 48 kHz, MPEG 1 or 2 Audio Layer 3 (MP3), 128kbps
скриншот  скриншот  скриншот  

Общее
Полное имя : D:\Семейный дом_2010_SATRip_SVAT\Семейный дом_01 серия_2010_SATRip_SVAT.avi
Формат : AVI
Формат/Информация : Audio Video Interleave
Размер файла : 552 Мбайт
Продолжительность : 51 м. 35 с.
Общий поток : 1495 Кбит/сек
Программа кодирования : VirtualDubMod 1.5.10.3 | www.virtualdub-fr.org || (build 2550/release)
Библиотека кодирования : VirtualDubMod build 2550/release

Видео
Идентификатор : 0
Формат : MPEG-4 Visual
Профиль формата : Advanced Simple@L5
Параметр BVOP формата : 2
Параметр QPel формата : Нет
Параметр GMC формата : Без точки перехода
Параметр матрицы формата : Default (MPEG)
Идентификатор кодека : XVID
Идентификатор кодека/Подсказка : XviD
Продолжительность : 51 м. 35 с.
Битрейт : 1357 Кбит/сек
Ширина : 704 пикселя
Высота : 400 пикселей
Соотношение сторон : 16:9
Частота кадров : 25,000 кадров/сек
Цветовое пространство : YUV
Субдискретизация насыщенности : 4:2:0
Битовая глубина : 8 бит
Тип развёртки : Прогрессивная
Метод сжатия : С потерями
Бит/(Пиксели*Кадры) : 0.193
Размер потока : 501 Мбайт (91%)
Библиотека кодирования : XviD 64

Аудио
Идентификатор : 1
Формат : MPEG Audio
Версия формата : Version 1
Профиль формата : Layer 3
Идентификатор кодека : 55
Идентификатор кодека/Подсказка : MP3
Продолжительность : 51 м. 35 с.
Вид битрейта : Постоянный
Битрейт : 128 Кбит/сек
Каналы : 2 канала
Частота : 48,0 КГц
Метод сжатия : С потерями
Размер потока : 47,2 Мбайт (9%)
Выравнивание : Соединение по промежуткам
Продолжительность промежутка : 40 мс. (1,00 видеокадр)
Время предзагрузки промежутка : 504 мс.
Библиотека кодирования : LAME3.98r
Настройки программы : -m s -V 4 -q 2 -lowpass 17 -b 128

pb.wtf



Скачать Семейный дом через торрент https://img11.lostpic.net/2018/07/08/e4192b0989c5fd6d2611691c9d15759a.jpg Скачать фильм Семейный дом через торрент бесплантно в хорошем качестве Описание: Рассказ о пяти детях-сиротах. Их адаптация к обычной жизни проходит с трудом, они шалят, воруют овощи с соседних ... 7.8 10 4
Торрент: Зарегистрирован [2018-07-08 12:03] · скачан: 38 раз
Статус: √ проверено
Размер: 6.46 GB
Как cкачать? Как скачать Семейный дом через торрент | qTorrent

% Раздел Тема Автор DL S | L
Наши сериалы [ 15.96 GB ] Дом образцового содержания / Сезон: 1 [2012 семейная сага SATRip Оригинал] wekotila Скачать
1 | 0

28-11-2019 20:33  

Отключить всю рекламу на сайте

    Дорогой пользователь! Огромная просьба, поблагодарите релизера, оцените раздачу и оставьте свои комментарий, если Вы скачали Семейный дом через торрент бесплатно! Внесите свою лепту в развитие PiratBit!
    Комментировать посты могут только пользователи прошедшие не сложную регистрацию
    Показать сообщения:    

    Семейный дом через торрент
    Скачать бесплатно Семейный дом
    Семейный дом скачать торрент
    Семейный дом смотреть онлайн
    Cкачать фильм Семейный дом бесплатно
    Семейный дом скачать торрент в хорошем качестве
    Семейный дом смотреть онлайн бесплатно в хорошем качестве


    Вы не можете начинать темы
    Вы не можете отвечать на сообщения
    Вы не можете редактировать свои сообщения
    Вы не можете удалять свои сообщения
    Вы не можете голосовать в опросах
    Вы не можете прикреплять файлы к сообщениям
    Вы можете скачивать файлы