Ссылка на приватное зеркало всего за 1$. Внимание количество ограничено!!!

OK

1+1

iTunes

мы

OK

1

WEB-DLRip

Джокер

Пифагор

Ведьмак / The Witcher сериал

iTunes

ПШазам

ОК

Оно 2

iTunes

30
pack

Вам бонус

ВАЖНО

!!Акция!!

Alien_RageХит недели

RePack

Resident Evil 21

ИГРА 18+

pack

RePack

jed

RePack

fifa19

RePack

Assassins Creed: Odyssey

RePack

NEED FOR SPEED™ PAYBACK

4 сезон

9 сезон

Бесстыжие 9 сезон

Все сериалы

все сериалы на PB.wtf

RePack

FAR CRY 5
  

Никому не Верь / Corrupt (Кертис Кроуфорд) [2016, триллер, WEB-DL 720p] MVO ["Синема УС"] pb.wtf

Никому не Верь через торрент pb.wtf

Размер: 3.13 GB | Добавлен: 1 год 6 мес. назад | Торрент скачан:19 раз
Скачать  

08-07-2018 15:36 Никому не Верь Скачать торрент  

Никому не Верь / CorruptГод выпуска: 2016
Страна: США
Жанр: триллер
Продолжительность: 01:32:07
Перевод: Любительский (многоголосый) | "Синема УС"
Субтитры: отсутствуют

Режиссер: Кертис Кроуфорд

rating

В ролях:

Николь де Боэр, Скотт Гибсон, Питер Майкл Диллон, Стив Бэран, Эллисон Бреннан, Виктор Корнфут, Тристан Криггер, Ванесса Фурнье, Дэннис Лафон

Описание:

Окружной прокурор, просит помощи у финансита в расследовании убийства ключевого свидетеля.

Качество: WEB-DL 720p
Формат: MKV

Видео: h.264, 4 476 kb/s, 1280x720
Аудио#1: Русский, (AC3, 2 ch, 384 Кбит/с)
скриншот  скриншот  скриншот  

Общее
Уникальный идентификатор : 240889554005711333989562775308577078498 (0xB539A3FA1985F1549E1B0A6CC68CFCE2)
Полное имя : D:\Trust.No.One.2016.P.WEB-DL.72Op_KOSHARA.mkv
Формат : Matroska
Версия формата : Version 2
Размер файла : 3,13 Гбайт
Продолжительность : 1 ч. 32 м.
Режим общего битрейта : Переменный
Общий поток : 4862 Кбит/сек
Дата кодирования : UTC 2018-07-04 20:31:54
Программа кодирования : mkvmerge v8.3.0 ('Over the Horizon') 64bit
Библиотека кодирования : libebml v1.3.1 + libmatroska v1.4.2

Видео
Идентификатор : 1
Формат : AVC
Формат/Информация : Advanced Video Codec
Профиль формата : High@L4.1
Параметр CABAC формата : Да
Параметр RefFrames формата : 4 кадра
Идентификатор кодека : V_MPEG4/ISO/AVC
Продолжительность : 1 ч. 32 м.
Вид битрейта : Переменный
Битрейт : 4476 Кбит/сек
Максимальный битрейт : 5000 Кбит/сек
Ширина : 1280 пикселей
Высота : 720 пикселей
Соотношение сторон : 16:9
Режим частоты кадров : Постоянный
Частота кадров : 23,976 (24000/1001) кадра/сек
Стандарт вещания : Component
Цветовое пространство : YUV
Субдискретизация насыщенности : 4:2:0
Битовая глубина : 8 бит
Тип развёртки : Прогрессивная
Бит/(Пиксели*Кадры) : 0.198
Размер потока : 2,82 Гбайт (90%)
Default : Да
Forced : Нет
Цветовой диапазон : Limited
Основные цвета : BT.709
Характеристики трансфера : BT.709
Коэффициенты матрицы : BT.709

Аудио
Идентификатор : 2
Формат : AC-3
Формат/Информация : Audio Coding 3
Расширение режима : CM (complete main)
Параметр Endianness формата : Big
Идентификатор кодека : A_AC3
Продолжительность : 1 ч. 32 м.
Вид битрейта : Постоянный
Битрейт : 384 Кбит/сек
Каналы : 2 канала
Расположение каналов : Front: L R
Частота : 48,0 КГц
Частота кадров : 31,250 кадров/сек (1536 spf)
Метод сжатия : С потерями
Размер потока : 253 Мбайт (8%)
Default : Да
Forced : Нет

pb.wtf



Скачать Никому не Верь через торрент https://img11.lostpic.net/2018/07/08/4798f78c588d92d8dd283bdc9c72719b.jpg Скачать фильм Никому не Верь через торрент бесплантно в хорошем качестве Описание: Окружной прокурор, просит помощи у финансита в расследовании убийства ключевого ... 10 10 3
Торрент: Зарегистрирован [2018-07-08 15:36] · скачан: 19 раз
Статус: T временная
Размер: 3.13 GB
Как cкачать? Как скачать Никому не Верь через торрент | qTorrent

% Раздел Тема Автор DL S | L
T Фильмы (мультфильмы) cо спонсором показа (Новинки AVI/MKV) [ 1.37 GB ] Никому не Верь / Corrupt [2016 WEB-DLRip] MVO ["Синема УС"] bober100 Скачать
1 | 0

28-11-2019 20:33  

Отключить всю рекламу на сайте

    Дорогой пользователь! Огромная просьба, поблагодарите релизера, оцените раздачу и оставьте свои комментарий, если Вы скачали Никому не Верь через торрент бесплатно! Внесите свою лепту в развитие PiratBit!
    Комментировать посты могут только пользователи прошедшие не сложную регистрацию
    Показать сообщения:    

    Никому не Верь через торрент
    Скачать бесплатно Никому не Верь
    Никому не Верь скачать торрент
    Никому не Верь смотреть онлайн
    Cкачать фильм Никому не Верь бесплатно
    Никому не Верь скачать торрент в хорошем качестве
    Никому не Верь смотреть онлайн бесплатно в хорошем качестве


    Вы не можете начинать темы
    Вы не можете отвечать на сообщения
    Вы не можете редактировать свои сообщения
    Вы не можете удалять свои сообщения
    Вы не можете голосовать в опросах
    Вы не можете прикреплять файлы к сообщениям
    Вы можете скачивать файлы