Ссылка на приватное зеркало всего за 1$. Внимание количество ограничено!!!

OK

1+1

iTunes

мы

OK

1

WEB-DLRip

Джокер

Пифагор

Ведьмак / The Witcher сериал

iTunes

ПШазам

ОК

Оно 2

iTunes

30
pack

Вам бонус

ВАЖНО

!!Акция!!

Alien_RageХит недели

RePack

Resident Evil 21

ИГРА 18+

pack

RePack

jed

RePack

fifa19

RePack

Assassins Creed: Odyssey

RePack

NEED FOR SPEED™ PAYBACK

4 сезон

9 сезон

Бесстыжие 9 сезон

Все сериалы

все сериалы на PB.wtf

RePack

FAR CRY 5
  

Молодость / Fang hua (Фэн Сяоган) [2017, драма, история, военный, BDRip 720p] MVO [КОЛОБОК] pb.wtf

Молодость через торрент pb.wtf

Размер: 6.25 GB | Добавлен: 1 год 6 мес. назад | Торрент скачан:14 раз
Скачать  

08-07-2018 16:28 Молодость Скачать торрент  

Молодость / Fang huaГод выпуска: 2017
Страна: Китай
Жанр: драма, история, военный
Продолжительность: 02:16:40
Перевод: Любительский (многоголосый) | КОЛОБОК
Субтитры: отсутствуют

Режиссер: Фэн Сяоган

rating

В ролях:

Хуан Сюань, Мяо Мяо, Ян Цайюй, Элейн Чжун, Ли Сяофэн, Ван Тяньчэнь, Су Янь, Ло Пань, Суй Юань, Хай Тао

Описание:

70-е годы. В дружный и сплочённый коллектив военно-патриотического ансамбля песни и пляски вливается новенькая, Хэ Сяопин. Но отношения с другими девушками у неё сразу не ладятся - она без спросу берёт форму одной из них, чтобы сфотографироваться и послать фотографию отцу, чем навлекает на себя дружный гнев и порицание. Хорошо к Сяопин относится только Лю Фэн, невероятно положительный и добрый, и к тому же - мастер на все руки.

Качество: BDRip 720p
Формат: MKV

Видео: 6 099 Кбит/с, 1280x536
Аудио#1: Русский (AC3, 2 ch, 448 Кбит/с)
скриншот  скриншот  скриншот  

Общее
Уникальный идентификатор : 190465222110716458879549286401156933742 (0x8F4A44787026E9409DBCAAE5DB85686E)
Полное имя : D:\Youth.2O17.P.BDRip.72Op.mkv
Формат : Matroska
Версия формата : Version 2
Размер файла : 6,25 Гбайт
Продолжительность : 2 ч. 16 м.
Режим общего битрейта : Переменный
Общий поток : 6549 Кбит/сек
Дата кодирования : UTC 2018-07-04 14:41:41
Программа кодирования : mkvmerge v8.3.0 ('Over the Horizon') 64bit
Библиотека кодирования : libebml v1.3.1 + libmatroska v1.4.2

Видео
Идентификатор : 1
Формат : AVC
Формат/Информация : Advanced Video Codec
Профиль формата : High@L4.1
Параметр CABAC формата : Да
Параметр RefFrames формата : 4 кадра
Идентификатор кодека : V_MPEG4/ISO/AVC
Продолжительность : 2 ч. 16 м.
Вид битрейта : Переменный
Битрейт : 6099 Кбит/сек
Максимальный битрейт : 6900 Кбит/сек
Ширина : 1280 пикселей
Высота : 536 пикселей
Соотношение сторон : 2,40:1
Режим частоты кадров : Постоянный
Частота кадров : 23,976 (24000/1001) кадра/сек
Стандарт вещания : Component
Цветовое пространство : YUV
Субдискретизация насыщенности : 4:2:0
Битовая глубина : 8 бит
Тип развёртки : Прогрессивная
Бит/(Пиксели*Кадры) : 0.363
Размер потока : 5,70 Гбайт (91%)
Default : Да
Forced : Нет
Цветовой диапазон : Limited
Основные цвета : BT.709
Характеристики трансфера : BT.709
Коэффициенты матрицы : BT.709

Аудио
Идентификатор : 2
Формат : AC-3
Формат/Информация : Audio Coding 3
Расширение режима : CM (complete main)
Параметр Endianness формата : Big
Идентификатор кодека : A_AC3
Продолжительность : 2 ч. 16 м.
Вид битрейта : Постоянный
Битрейт : 448 Кбит/сек
Каналы : 2 канала
Расположение каналов : Front: L R
Частота : 48,0 КГц
Частота кадров : 31,250 кадров/сек (1536 spf)
Метод сжатия : С потерями
Размер потока : 438 Мбайт (7%)
Default : Да
Forced : Нет

pb.wtf



Скачать Молодость через торрент https://img11.lostpic.net/2018/07/08/d9ff3d271a15a0c53208ede4c891dbe9.jpg Скачать фильм Молодость через торрент бесплантно в хорошем качестве Описание: 70-е годы. В дружный и сплочённый коллектив военно-патриотического ансамбля песни и пляски вливается новенькая, Хэ Сяопин. Но ... 7 10 3
Торрент: Зарегистрирован [2018-07-08 16:28] · скачан: 14 раз
Статус: # сомнительно
Размер: 6.25 GB
Как cкачать? Как скачать Молодость через торрент | qTorrent

% Раздел Тема Автор DL S | L
T Фильмы (мультфильмы) cо спонсором показа (Новинки AVI/MKV) [ 2.05 GB ] Молодость / Fang hua [2017 история военный HDRip] MVO [КОЛОБОК] bober100 Скачать
1 | 0
T Фильмы (мультфильмы) cо спонсором показа (Новинки AVI/MKV) [ 1.37 GB ] Молодость / Fang hua [2017 история военный HDRip] MVO [КОЛОБОК] bober100 Скачать
1 | 0

28-11-2019 20:33  

Отключить всю рекламу на сайте

    Дорогой пользователь! Огромная просьба, поблагодарите релизера, оцените раздачу и оставьте свои комментарий, если Вы скачали Молодость через торрент бесплатно! Внесите свою лепту в развитие PiratBit!
    Комментировать посты могут только пользователи прошедшие не сложную регистрацию
    Показать сообщения:    

    Молодость через торрент
    Скачать бесплатно Молодость
    Молодость скачать торрент
    Молодость смотреть онлайн
    Cкачать фильм Молодость бесплатно
    Молодость скачать торрент в хорошем качестве
    Молодость смотреть онлайн бесплатно в хорошем качестве


    Вы не можете начинать темы
    Вы не можете отвечать на сообщения
    Вы не можете редактировать свои сообщения
    Вы не можете удалять свои сообщения
    Вы не можете голосовать в опросах
    Вы не можете прикреплять файлы к сообщениям
    Вы можете скачивать файлы