Ссылка на приватное зеркало всего за 1$. Внимание количество ограничено!!!

OK

1+1

iTunes

мы

OK

1

WEB-DLRip

Джокер

Пифагор

Ведьмак / The Witcher сериал

iTunes

ПШазам

ОК

Оно 2

iTunes

30
pack

Вам бонус

ВАЖНО

!!Акция!!

Alien_RageХит недели

RePack

Resident Evil 21

ИГРА 18+

pack

RePack

jed

RePack

fifa19

RePack

Assassins Creed: Odyssey

RePack

NEED FOR SPEED™ PAYBACK

4 сезон

9 сезон

Бесстыжие 9 сезон

Все сериалы

все сериалы на PB.wtf

RePack

FAR CRY 5
  

Фальшивомонетчицы / Counterfeiting in Suburbia (Джейсон Бурк) [2018, Триллер, WEB-DL 720p] MVO ["Синема УС"] pb.wtf

Фальшивомонетчицы через торрент pb.wtf

Размер: 3.29 GB | Добавлен: 1 год 6 мес. назад | Торрент скачан:58 раз
Скачать  

08-07-2018 17:21 Фальшивомонетчицы Скачать торрент  

Фальшивомонетчицы / Counterfeiting in SuburbiaГод выпуска: 2018
Страна: США
Жанр: Триллер
Продолжительность: 01:30:18
Перевод: Любительский (многоголосый) | "Синема УС"
Субтитры: отсутствуют

Режиссер: Джейсон Бурк

rating

В ролях:

Лариса Альбукерке, Брюс Блейн, Сара Батлер, Карина Фрислев, Натали Грейс, Мэтью МакКаулл, Дастин Макдугалл, Филлип Митчелл, Робин Т. Роуз, Кайла Уоллес, Элисон Вандзура

Описание:

Двое подростков убедили себя, что они не наносят никакого вреда, подделывая деньги. Но дело принимает более серьезный поворот, когда их учитель искусств, на котором висят большие долги, узнает, что девочки используют его класс, чтобы печатать фальшивые банкноты.

Качество: WEB-DL 720p
Формат: MKV

Видео: 4 831kb/s, 1280x720
Аудио#1: Русский, (AC3, 2 ch, 384 Кбит/с)
скриншот  скриншот  скриншот  

Общее
Уникальный идентификатор : 170470645844072203175359775428857159716 (0x803F73BFE819E2F1A5E87E610A2DE024)
Полное имя : D:\Counterfeiting.in.Suburbia.2018.P.WEB-DL.72Op_KOSHARA.mkv
Формат : Matroska
Версия формата : Version 2
Размер файла : 3,29 Гбайт
Продолжительность : 1 ч. 30 м.
Режим общего битрейта : Переменный
Общий поток : 5217 Кбит/сек
Дата кодирования : UTC 2018-07-04 14:38:00
Программа кодирования : mkvmerge v8.3.0 ('Over the Horizon') 64bit
Библиотека кодирования : libebml v1.3.1 + libmatroska v1.4.2

Видео
Идентификатор : 1
Формат : AVC
Формат/Информация : Advanced Video Codec
Профиль формата : High@L4.1
Параметр CABAC формата : Да
Параметр RefFrames формата : 4 кадра
Идентификатор кодека : V_MPEG4/ISO/AVC
Продолжительность : 1 ч. 30 м.
Вид битрейта : Переменный
Битрейт : 4831 Кбит/сек
Максимальный битрейт : 5500 Кбит/сек
Ширина : 1280 пикселей
Высота : 720 пикселей
Соотношение сторон : 16:9
Режим частоты кадров : Постоянный
Частота кадров : 23,976 (24000/1001) кадра/сек
Стандарт вещания : Component
Цветовое пространство : YUV
Субдискретизация насыщенности : 4:2:0
Битовая глубина : 8 бит
Тип развёртки : Прогрессивная
Бит/(Пиксели*Кадры) : 0.214
Размер потока : 2,98 Гбайт (91%)
Default : Да
Forced : Нет
Цветовой диапазон : Limited
Основные цвета : BT.709
Характеристики трансфера : BT.709
Коэффициенты матрицы : BT.709

Аудио
Идентификатор : 2
Формат : AC-3
Формат/Информация : Audio Coding 3
Расширение режима : CM (complete main)
Параметр Endianness формата : Big
Идентификатор кодека : A_AC3
Продолжительность : 1 ч. 30 м.
Вид битрейта : Постоянный
Битрейт : 384 Кбит/сек
Каналы : 2 канала
Расположение каналов : Front: L R
Частота : 48,0 КГц
Частота кадров : 31,250 кадров/сек (1536 spf)
Метод сжатия : С потерями
Размер потока : 248 Мбайт (7%)
Default : Да
Forced : Нет

pb.wtf



Скачать Фальшивомонетчицы через торрент https://img11.lostpic.net/2018/07/08/5151c01123eb4cff53a8b0ced61b2cbb.jpg Скачать фильм Фальшивомонетчицы через торрент бесплантно в хорошем качестве Описание: Двое подростков убедили себя, что они не наносят никакого вреда, подделывая деньги. Но дело принимает более серьезный поворот, ... 9.8 10 6
Торрент: Зарегистрирован [2018-07-08 17:21] · скачан: 58 раз
Статус: T временная
Размер: 3.29 GB
Как cкачать? Как скачать Фальшивомонетчицы через торрент | qTorrent

% Раздел Тема Автор DL S | L
T Фильмы (мультфильмы) cо спонсором показа (Новинки AVI/MKV) [ 1.37 GB ] Фальшивомонетчицы / Counterfeiting in Suburbia [2018 WEB-DLRip] MVO ["Синема УС"] bober100 Скачать
1 | 0

28-11-2019 20:33  

Отключить всю рекламу на сайте

    Дорогой пользователь! Огромная просьба, поблагодарите релизера, оцените раздачу и оставьте свои комментарий, если Вы скачали Фальшивомонетчицы через торрент бесплатно! Внесите свою лепту в развитие PiratBit!
    Комментировать посты могут только пользователи прошедшие не сложную регистрацию
    Показать сообщения:    

    Фальшивомонетчицы через торрент
    Скачать бесплатно Фальшивомонетчицы
    Фальшивомонетчицы скачать торрент
    Фальшивомонетчицы смотреть онлайн
    Cкачать фильм Фальшивомонетчицы бесплатно
    Фальшивомонетчицы скачать торрент в хорошем качестве
    Фальшивомонетчицы смотреть онлайн бесплатно в хорошем качестве


    Вы не можете начинать темы
    Вы не можете отвечать на сообщения
    Вы не можете редактировать свои сообщения
    Вы не можете удалять свои сообщения
    Вы не можете голосовать в опросах
    Вы не можете прикреплять файлы к сообщениям
    Вы можете скачивать файлы