Всегда рабочее зеркало без VPN и Proxy просто перед .vidak.icu напиши любое слово или цифру, Пример http://9to2.vidak.icu

MVO

2 сезон

1 сезон

1

1 сезон

iTunes

2 сезон

13

1 сезон

Deluxe

pack

Рекомендуем

Пиратка

30

ВАЖНО

RePack

MK11

RePack

jed

RePack

fifa19

RePack

RDR2

RePack

NEED FOR SPEED™ PAYBACK

Кинопоиск HD

6 сезон

 Острые козырьки 6 сезон

Все сериалы

все сериалы на PB.wtf

RePack

FAR CRY 5

Anonymous, нам критически не хватает 5601 руб. на оплату серверов и переферии за Апрель, помоги нам пожалуйста, вся надежда только на тебя. В благодарность мы отключим тебе всю рекламу на сайте!

×
  
Magnet ссылка

Ее звали Лиза / Her Name Was Lisa (Roger Watkins) [1979 г., Adult, classic sex, oral, fetish, lesbi, BDRip 720p, Eng] pb.wtf

Ее звали Лиза через торрент pb.wtf

Размер: 1.68 GB | Добавлен: 3 года 10 мес. назад | Торрент скачан:321 раз
Смотреть онлайн Ее звали Лиза | Скачать    Ребята, помогите собрать деньги на оплату серверов!!!

08-07-2018 17:47 Ее звали Лиза Скачать торрент  

Ее звали Лиза / Her Name Was LisaГод выпуска: 1979
Страна: США
Жанр: Adult, classic sex, oral, fetish, lesbi
Продолжительность: 01:28:14
Перевод: Оригинал (английский)

Режиссер: Roger Watkins
В ролях: Ванесса Дель Рио, Саманта Фокс, Бобби Астир, Робин Байрд, Barbara Daniels, Рон Хадд, Rick Iverson, David Pierce, Erica Richardson, Рэнди Уэст
Студия: Ace Booking Service Inc.

Описание: Shown in flashbacks by those who now show remorse at her at her funeral, a photographer invites a prostitute to pose for him. They sleep once and he treats her fair, but both his publisher and a stranger woman called Carmen lead to her degradation and untimely demise.
Показанный в воспоминаниях теми, кто сейчас показывает раскаяние на ее похоронах, фотограф приглашает проститутку позировать ему. Они спят один раз, и он относится к ней справедливо, но и его Издатель, и незнакомая женщина по имени Кармен приводят к ее деградации и безвременной кончине.

Качество: BDRip 720p
Формат: MKV
Видео кодек: H.264
Аудио кодек: AC3
Видео: AVC, 1280x720 (16:9), 23.976 fps ~ 2560 Kbps
Аудио: 48 KHz, 1 ch ~ 160 Kb/s (английский)
Общее
Уникальный идентификатор : 85722914355221347836207166131820656671 (0x407DA1FD1026B95203A3ECD96B19781F)
Полное имя : Q:\TorF\Her Name Was Lisa (1979).mkv
Формат : Matroska
Версия формата : Version 4 / Version 2
Размер файла : 1,68 Гбайт
Продолжительность : 1 ч. 28 м.
Общий поток : 2721 Кбит/сек
Название фильма : Her.Name.Was.Lisa.1980.720p.BluRay.x264-x0r
Дата кодирования : UTC 2018-06-02 13:02:56
Программа кодирования : mkvmerge v7.7.0 ('Six Voices') 64bit built on Mar 1 2015 01:50:05
Библиотека кодирования : libebml v1.3.1 + libmatroska v1.4.2
DURATION : 01:27:25.823000000
NUMBER_OF_FRAMES : 586
NUMBER_OF_BYTES : 15560
_STATISTICS_WRITING_APP : mkvmerge v7.7.0 ('Six Voices') 64bit built on Mar 1 2015 01:50:05
_STATISTICS_WRITING_DATE_UTC : 2018-06-02 13:02:56
_STATISTICS_TAGS : BPS DURATION NUMBER_OF_FRAMES NUMBER_OF_BYTES

Видео
Идентификатор : 1
Формат : AVC
Формат/Информация : Advanced Video Codec
Профиль формата : High@L4.0
Параметр CABAC формата : Да
Параметр ReFrames формата : 8 кадров
Идентификатор кодека : V_MPEG4/ISO/AVC
Продолжительность : 1 ч. 28 м.
Битрейт : 2560 Кбит/сек
Ширина : 1280 пикселей
Высота : 720 пикселей
Соотношение сторон : 16:9
Режим частоты кадров : Переменный
Частота кадров : 23,976 кадра/сек
Цветовое пространство : YUV
Субдискретизация насыщенности : 4:2:0
Битовая глубина : 8 бит
Тип развёртки : Прогрессивная
Бит/(Пиксели*Кадры) : 0.116
Размер потока : 1,55 Гбайт (92%)
Библиотека кодирования : x264 core 148 r2795 aaa9aa8
Настройки программы : cabac=1 / ref=8 / deblock=1:-2:-2 / analyse=0x3:0x133 / me=umh / subme=9 / psy=1 / psy_rd=1.00:0.25 / mixed_ref=1 / me_range=32 / chroma_me=1 / trellis=2 / 8x8dct=1 / cqm=0 / deadzone=21,11 / fast_pskip=1 / chroma_qp_offset=-4 / threads=22 / lookahead_threads=2 / sliced_threads=0 / nr=0 / decimate=1 / interlaced=0 / bluray_compat=0 / constrained_intra=0 / bframes=4 / b_pyramid=2 / b_adapt=2 / b_bias=0 / direct=3 / weightb=1 / open_gop=0 / weightp=2 / keyint=240 / keyint_min=24 / scenecut=40 / intra_refresh=0 / rc_lookahead=40 / rc=2pass / mbtree=1 / bitrate=2560 / ratetol=1.0 / qcomp=0.60 / qpmin=0 / qpmax=69 / qpstep=4 / cplxblur=20.0 / qblur=0.5 / vbv_maxrate=20000 / vbv_bufsize=25000 / nal_hrd=none / filler=0 / ip_ratio=1.40 / aq=1:1.00
Язык : English
Default : Да
Forced : Нет
DURATION : 01:28:14.248000000
NUMBER_OF_FRAMES : 126935
NUMBER_OF_BYTES : 1693842597
_STATISTICS_WRITING_APP : mkvmerge v7.7.0 ('Six Voices') 64bit built on Mar 1 2015 01:50:05
_STATISTICS_WRITING_DATE_UTC : 2018-06-02 13:02:56
_STATISTICS_TAGS : BPS DURATION NUMBER_OF_FRAMES NUMBER_OF_BYTES
Основные цвета : BT.709-5, BT.1361, IEC 61966-2-4, SMPTE RP177
Характеристики трансфера : BT.709-5, BT.1361
Коэффициенты матрицы : BT.709-5, BT.1361, IEC 61966-2-4 709, SMPTE RP177

Аудио
Идентификатор : 2
Формат : AC-3
Формат/Информация : Audio Coding 3
Расширение режима : CM (complete main)
Идентификатор кодека : A_AC3
Продолжительность : 1 ч. 28 м.
Вид битрейта : Постоянный
Битрейт : 160 Кбит/сек
Каналы : 1 канал
Расположение каналов : Front: C
Частота : 48,0 КГц
Битовая глубина : 16 бит
Метод сжатия : С потерями
Размер потока : 101 Мбайт (6%)
Заголовок : Mono
Язык : English
Default : Да
Forced : Нет
DURATION : 01:28:14.208000000
NUMBER_OF_FRAMES : 165444
NUMBER_OF_BYTES : 105884160
_STATISTICS_WRITING_APP : mkvmerge v7.7.0 ('Six Voices') 64bit built on Mar 1 2015 01:50:05
_STATISTICS_WRITING_DATE_UTC : 2018-06-02 13:02:56
_STATISTICS_TAGS : BPS DURATION NUMBER_OF_FRAMES NUMBER_OF_BYTES

Текст
Идентификатор : 3
Формат : UTF-8
Идентификатор кодека : S_TEXT/UTF8
Идентификатор кодека/Информация : UTF-8 Plain Text
Язык : English
Default : Да
Forced : Нет

Меню
00:00:00.000 : :Chapter 1
00:15:07.156 : :Chapter 2
00:35:43.475 : :Chapter 3
00:56:28.760 : :Chapter 4
01:17:24.140 : :Chapter 5

pb.wtf



pack Скачать Ее звали Лиза через торрент https://pic.kartinco.top/images/11/oo1u3.jpg Скачать, смотреть онлайн Ее звали Лиза бесплантно в хорошем качестве Описание: Shown in flashbacks by those who now show remorse at her at her funeral, a photographer invites a prostitute to pose for him. ... 9.4 10 14
Info! Золотая раздача, скачанное не засчитывается.
Торрент: Зарегистрирован [2018-07-08 17:47] · скачан: 321 раз
Статус: √ проверено
Размер: 1.68 GB
Как cкачать? Как скачать Ее звали Лиза через торрент | UTorrent

28-11-2019 20:33  

Отключить всю рекламу на сайте

09-07-2018 03:56 Ее звали Лиза Скачать торрент  

Топик был перенесен из форума Порно-ролики в форум Классические порно фильмы


sheker187pb.wtf



pack
    Дорогой пользователь! Огромная просьба, поблагодарите релизера, оцените раздачу и оставьте свои комментарий, если Вы скачали Ее звали Лиза через торрент бесплатно!
    Комментировать посты могут только пользователи прошедшие не сложную регистрацию
    Показать сообщения:    

    Ее звали Лиза через торрент
    Скачать бесплатно Ее звали Лиза
    Ее звали Лиза скачать торрент
    Ее звали Лиза смотреть онлайн
    Cкачать фильм Ее звали Лиза бесплатно
    Ее звали Лиза скачать торрент в хорошем качестве
    Ее звали Лиза смотреть онлайн бесплатно в хорошем качестве


    Вы не можете начинать темы
    Вы не можете отвечать на сообщения
    Вы не можете редактировать свои сообщения
    Вы не можете удалять свои сообщения
    Вы не можете голосовать в опросах
    Вы не можете прикреплять файлы к сообщениям
    Вы можете скачивать файлы