2 сезон

iTunes

MVO

1

2 сезон

iTunes

iTunes

1 сезон

RePack

30

Новинка

ВАЖНО

ИГРА 18+

pack

RePack

MK11
pack

Легкие деньги

RePack

jed

RePack

fifa19

RePack

RDR2

RePack

NEED FOR SPEED™ PAYBACK

4 сезон

9 сезон

Бесстыжие 9 сезон

Все сериалы

все сериалы на PB.wtf

RePack

FAR CRY 5

Anonymous, доброй ночи, мы не успеваем собрать деньги на оплату серверов за декабрь и январь, помогите нам пожалуйста в это трудное время. В качестве благодарности мы отключим Вам всю рекламу на сайте (укажите свой ник в строку Ваше имя)!

×
  
Magnet ссылка

Жених на двоих / Jour J (Рем Кериси) [2017, комедия, BDRip-AVC] DUB [Лицензия] pb.wtf

Жених на двоих через торрент pb.wtf

Размер: 1.54 GB | Добавлен: 2 года 6 мес. назад | Торрент скачан:150 раз
Скачать  

08-07-2018 18:29 Жених на двоих Скачать торрент  

Жених на двоих / Jour J
Год выпуска: 2017
Страна: Франция
Жанр: комедия
Продолжительность: 01:33:58
Перевод: Дублированный | Лицензия
Субтитры: отсутствуют

Режиссер: Рем Кериси

rating

В ролях:

Рем Кериси, Николя Дювошель, Джулия Пьятон, Сильви Тестю, Франсуа-Ксавье Демезон, Шанталь Лоби, Лионель Астье

Описание:

Что делать, если любовница занимается организацией твоей свадьбы..? Молиться, чтобы она не подружилась с невестой. У Матиаса осталось совсем мало времени, чтобы выбрать из двух девушек — одну...

Качество: BDRip-AVC
Формат: MKV
Видео кодек: H.264
Аудио кодек: AC3

Видео: 1024x426 (16:9), 24,000 fps, x264 ~1905 kbps avg, 0.182 bit/pixel
Аудио: 48 kHz, AC3 Dolby Digital, 3/2 (L,C,R,l,r) + LFE ch, ~448.00 kbps avg | RUS (Лицензия)
скриншот   скриншот   скриншот   скриншот   скриншот  

Общее
Уникальный идентификатор : 217385615053213806099523160748725638184 (0xA38AF2512A9E11E79028C30F40A41428)
Полное имя : F:\OlLanDGroup\Jour.J.2017.BDRip(AVC).OlLanDGroup.mkv
Формат : Matroska
Версия формата : Version 4 / Version 2
Размер файла : 1,54 Гбайт
Продолжительность : 1 ч. 33 м.
Общий поток : 2353 Кбит/сек
Название фильма : Jour.J #TorpedoUK#
Дата кодирования : UTC 2018-07-08 15:43:45
Программа кодирования : mkvmerge v8.3.0 ('Over the Horizon') 64bit
Библиотека кодирования : libebml v1.3.1 + libmatroska v1.4.2

Видео
Идентификатор : 1
Формат : AVC
Формат/Информация : Advanced Video Codec
Профиль формата : High@L4.1
Параметр CABAC формата : Да
Параметр ReFrames формата : 10 кадров
Идентификатор кодека : V_MPEG4/ISO/AVC
Продолжительность : 1 ч. 33 м.
Битрейт : 1905 Кбит/сек
Ширина : 1024 пикселя
Высота : 426 пикселей
Соотношение сторон : 2,40:1
Режим частоты кадров : Постоянный
Частота кадров : 24,000 кадра/сек
Цветовое пространство : YUV
Субдискретизация насыщенности : 4:2:0
Битовая глубина : 8 бит
Тип развёртки : Прогрессивная
Бит/(Пиксели*Кадры) : 0.182
Размер потока : 1,25 Гбайт (81%)
Библиотека кодирования : x264 core 146 r2538 121396c
Настройки программы : cabac=1 / ref=10 / deblock=1:-3:-3 / analyse=0x3:0x133 / me=umh / subme=11 / psy=1 / psy_rd=1.00:0.07 / mixed_ref=1 / me_range=48 / chroma_me=1 / trellis=2 / 8x8dct=1 / cqm=0 / deadzone=21,11 / fast_pskip=0 / chroma_qp_offset=-3 / threads=6 / lookahead_threads=1 / sliced_threads=0 / nr=0 / decimate=0 / interlaced=0 / bluray_compat=0 / constrained_intra=0 / bframes=10 / b_pyramid=2 / b_adapt=2 / b_bias=0 / direct=3 / weightb=1 / open_gop=0 / weightp=2 / keyint=240 / keyint_min=24 / scenecut=40 / intra_refresh=0 / rc_lookahead=40 / rc=2pass / mbtree=0 / bitrate=1905 / ratetol=1.0 / qcomp=0.60 / qpmin=0 / qpmax=69 / qpstep=4 / cplxblur=20.0 / qblur=0.5 / vbv_maxrate=50000 / vbv_bufsize=62500 / nal_hrd=none / filler=0 / ip_ratio=1.40 / pb_ratio=1.30 / aq=1:1.00
Язык : English
Default : Да
Forced : Нет

Аудио
Идентификатор : 2
Формат : AC-3
Формат/Информация : Audio Coding 3
Расширение режима : CM (complete main)
Параметр Endianness формата : Big
Идентификатор кодека : A_AC3
Продолжительность : 1 ч. 33 м.
Вид битрейта : Постоянный
Битрейт : 448 Кбит/сек
Каналы : 6 каналов
Расположение каналов : Front: L C R, Side: L R, LFE
Частота : 48,0 КГц
Частота кадров : 31,250 кадров/сек (1536 spf)
Битовая глубина : 16 бит
Метод сжатия : С потерями
Размер потока : 301 Мбайт (19%)
Заголовок : License
Язык : Russian
Default : Да
Forced : Нет

Меню
00:00:00.000 : en:Глава 1
00:06:53.250 : en:Глава 2
00:12:36.791 : en:Глава 3
00:16:55.666 : en:Глава 4
00:22:29.582 : en:Глава 5
00:28:32.998 : en:Глава 6
00:33:58.581 : en:Глава 7
00:40:40.372 : en:Глава 8
00:47:48.997 : en:Глава 9
00:53:00.038 : en:Глава 10
01:00:03.829 : en:Глава 11
01:06:02.745 : en:Глава 12
01:14:02.286 : en:Глава 13
01:19:08.036 : en:Глава 14
01:23:27.994 : en:Глава 15

pb.wtf



Скачать Жених на двоих через торрент http://lostpix.com/img/2017-09/04/z3dsczrf0ih537mtek0rd0202.jpg Скачать фильм Жених на двоих через торрент бесплантно в хорошем качестве Описание: Что делать, если любовница занимается организацией твоей свадьбы..? Молиться, чтобы она не подружилась с невестой. У Матиаса ... 8.5 10 6
Торрент: Зарегистрирован [2018-07-08 18:29] · скачан: 150 раз
Статус: √ проверено
Размер: 1.54 GB
Как cкачать? Как скачать Жених на двоих через торрент | UTorrent

% Раздел Тема Автор DL S | L
Фильмы 2017 [DVDrip, WEB-DLRip, HDrip] (DUB, MVO) [ 1.46 GB ] Жених на двоих / Jour J [2017 BDRip] DUB [ R5] bober100 Скачать
1 | 0
Фильмы 2017 [DVDrip, WEB-DLRip, HDrip] (DUB, MVO) [ 1.46 GB ] Жених на двоих / Jour J [2017 BDRip] - [] Twi7ter Скачать
1 | 1
T Фильмы [HD 720p, 1080p] (Хороший звук DUB, MVO) [ 6.81 GB ] Жених на двоих / Jour J [2017 BDRip 1080p] bober100 Скачать
1 | 0

28-11-2019 20:33  

Отключить всю рекламу на сайте

    Дорогой пользователь! Огромная просьба, поблагодарите релизера, оцените раздачу и оставьте свои комментарий, если Вы скачали Жених на двоих через торрент бесплатно! Внесите свою лепту в развитие PiratBit!
    Комментировать посты могут только пользователи прошедшие не сложную регистрацию
    Показать сообщения:    

    Жених на двоих через торрент
    Скачать бесплатно Жених на двоих
    Жених на двоих скачать торрент
    Жених на двоих смотреть онлайн
    Cкачать фильм Жених на двоих бесплатно
    Жених на двоих скачать торрент в хорошем качестве
    Жених на двоих смотреть онлайн бесплатно в хорошем качестве


    Вы не можете начинать темы
    Вы не можете отвечать на сообщения
    Вы не можете редактировать свои сообщения
    Вы не можете удалять свои сообщения
    Вы не можете голосовать в опросах
    Вы не можете прикреплять файлы к сообщениям
    Вы можете скачивать файлы