Marvel's Avengers Deluxe Edition (супер цена) 159р. Внимание количество ограничено!!!

2 сезон

iTunes

iTunes

1

iTunes

iTunes

iTunes

WEBRip

iTunes

30
pack

Новость дня

ВАЖНО

!!Акция!!

Alien_RageХит недели

RePack

Horizon Zero Dawn

ИГРА 18+

pack

RePack

jed

!!Акция!!

Alien_Rage

RePack

fifa19

RePack

Assassins Creed: Odyssey

RePack

NEED FOR SPEED™ PAYBACK

4 сезон

9 сезон

Бесстыжие 9 сезон

Все сериалы

все сериалы на PB.wtf

RePack

FAR CRY 5
  

Соколы / Большое футбольное приключение / Víti í Vestmannaeyjum (Брэги Хинрикссон) [2018, Драма, комедия, семейный, WEB-DL 720p] MVO ["Синема УС"] pb.wtf

Соколы через торрент pb.wtf

Размер: 3.46 GB | Добавлен: 2 года 2 мес. назад | Торрент скачан:13 раз
Скачать  

08-07-2018 18:58 Соколы Скачать торрент  

Соколы / Большое футбольное приключение / Víti í Vestmannaeyjum
Год выпуска: 2018
Страна: Исландия
Жанр: Драма, комедия, семейный
Продолжительность: 01:39:34
Перевод: Любительский (многоголосый) | "Синема УС"

Субтитры: отсутствуют

Режиссер: Брэги Хинрикссон

rating

В ролях:

Лукас Эмил Йохансен, Виктор Бенони Бенидиктссон, Исей Хейдарсдоттир, Оли Гуннар Гуннарссон, Робет Лу

Описание:

Каждый год на небольшом архипелаге Вестманн, у южного побережья Исландии, проводится большой турнир для юных футболистов. На этот раз туда со своей командой попадает десятилетний Йон Йонссон...

Качество: WEB-DL 720p
Формат: MKV

Видео: h.264, 4 592 kb/s, 1280x534
Аудио#1: Русский, (AC3, 2 ch, 384 Кбит/с)
скриншот  скриншот  скриншот  

Общее
Уникальный идентификатор : 200144218742041641430854266109523628107 (0x96925FD925452AC1B3268AE77367904B)
Полное имя : D:\The.Falcons.2018.P.WEB-DL.72Op_KOSHARA.mkv
Формат : Matroska
Версия формата : Version 2
Размер файла : 3,46 Гбайт
Продолжительность : 1 ч. 39 м.
Режим общего битрейта : Переменный
Общий поток : 4978 Кбит/сек
Дата кодирования : UTC 2018-07-03 10:52:56
Программа кодирования : mkvmerge v8.3.0 ('Over the Horizon') 64bit
Библиотека кодирования : libebml v1.3.1 + libmatroska v1.4.2

Видео
Идентификатор : 1
Формат : AVC
Формат/Информация : Advanced Video Codec
Профиль формата : High@L4.1
Параметр CABAC формата : Да
Параметр RefFrames формата : 4 кадра
Идентификатор кодека : V_MPEG4/ISO/AVC
Продолжительность : 1 ч. 39 м.
Вид битрейта : Переменный
Битрейт : 4592 Кбит/сек
Максимальный битрейт : 5000 Кбит/сек
Ширина : 1280 пикселей
Высота : 534 пикселя
Соотношение сторон : 2,40:1
Режим частоты кадров : Постоянный
Частота кадров : 23,976 (24000/1001) кадра/сек
Стандарт вещания : Component
Цветовое пространство : YUV
Субдискретизация насыщенности : 4:2:0
Битовая глубина : 8 бит
Тип развёртки : Прогрессивная
Бит/(Пиксели*Кадры) : 0.274
Размер потока : 3,13 Гбайт (90%)
Default : Да
Forced : Нет
Цветовой диапазон : Limited
Основные цвета : BT.709
Характеристики трансфера : BT.709
Коэффициенты матрицы : BT.709

Аудио
Идентификатор : 2
Формат : AC-3
Формат/Информация : Audio Coding 3
Расширение режима : CM (complete main)
Параметр Endianness формата : Big
Идентификатор кодека : A_AC3
Продолжительность : 1 ч. 39 м.
Вид битрейта : Постоянный
Битрейт : 384 Кбит/сек
Каналы : 2 канала
Расположение каналов : Front: L R
Частота : 48,0 КГц
Частота кадров : 31,250 кадров/сек (1536 spf)
Метод сжатия : С потерями
Размер потока : 274 Мбайт (8%)
Default : Да
Forced : Нет

pb.wtf



Скачать Соколы через торрент https://img11.lostpic.net/2018/07/08/9ce5c6ac0a9176d40b8ae51361de8f52.jpg Скачать фильм Соколы через торрент бесплантно в хорошем качестве Описание: Каждый год на небольшом архипелаге Вестманн, у южного побережья Исландии, проводится большой турнир для юных футболистов. На этот ... 10 10 3
Торрент: Зарегистрирован [2018-07-08 18:58] · скачан: 13 раз
Статус: T временная
Размер: 3.46 GB
Как cкачать? Как скачать Соколы через торрент | qTorrent

% Раздел Тема Автор DL S | L
T Фильмы (мультфильмы) cо спонсором показа (Новинки AVI/MKV) [ 1.37 GB ] Соколы / Большое футбольное приключение / Víti í Vestmannaeyjum [2018 WEB-DLRip] MVO ["Синема УС"] bober100 Скачать
1 | 0

28-11-2019 20:33  

Отключить всю рекламу на сайте

    Дорогой пользователь! Огромная просьба, поблагодарите релизера, оцените раздачу и оставьте свои комментарий, если Вы скачали Соколы через торрент бесплатно! Внесите свою лепту в развитие PiratBit!
    Комментировать посты могут только пользователи прошедшие не сложную регистрацию
    Показать сообщения:    

    Соколы через торрент
    Скачать бесплатно Соколы
    Соколы скачать торрент
    Соколы смотреть онлайн
    Cкачать фильм Соколы бесплатно
    Соколы скачать торрент в хорошем качестве
    Соколы смотреть онлайн бесплатно в хорошем качестве


    Вы не можете начинать темы
    Вы не можете отвечать на сообщения
    Вы не можете редактировать свои сообщения
    Вы не можете удалять свои сообщения
    Вы не можете голосовать в опросах
    Вы не можете прикреплять файлы к сообщениям
    Вы можете скачивать файлы