Ссылка на приватное зеркало всего за 1$. Внимание количество ограничено!!!

OK

1+1

iTunes

мы

OK

1

WEB-DLRip

Джокер

Пифагор

Ведьмак / The Witcher сериал

iTunes

ПШазам

ОК

Оно 2

iTunes

30
pack

Вам бонус

ВАЖНО

!!Акция!!

Alien_RageХит недели

RePack

Resident Evil 21

ИГРА 18+

pack

RePack

jed

RePack

fifa19

RePack

Assassins Creed: Odyssey

RePack

NEED FOR SPEED™ PAYBACK

4 сезон

9 сезон

Бесстыжие 9 сезон

Все сериалы

все сериалы на PB.wtf

RePack

FAR CRY 5
  

Бандос / Patser / Gangsta (Адиль Эль Арби, Билал Фалла) [2018, криминал, BDRip 720p] MVO [КОЛОБОК] pb.wtf

Бандос через торрент pb.wtf

Размер: 5.93 GB | Добавлен: 1 год 6 мес. назад | Торрент скачан:113 раз
Скачать  

08-07-2018 19:26 Бандос Скачать торрент  

Бандос / Patser / Gangsta
Год выпуска: 2018
Страна: Бельгия
Жанр: криминал
Продолжительность: 02:07:13
Перевод: Любительский (многоголосый) | КОЛОБОК
Субтитры: отсутствуют

Режиссер: Адиль Эль Арби, Билал Фалла

rating

В ролях:

Палома Агилера Вальдебенито, Эдуардо Алмейда, Гене Бервутс, Франсуа Букелаэрс, Саид Бумазуге, Эрик Кортон, Аксел Дазелейре, Вик Де Уоктер, Аза Деклерк, Абдель Малик Фархуни

Описание:

Четверо друзей давно уже промышляют сбытом наркотических средств, но они всегда мечтали провернуть какую-нибудь аферу, чтобы стать очень богатыми состоятельными личностями. Именно друзьям удалось украсть огромнейший груз чистейшего кокаина, и если они смогут его правильно сбыть, то просто озолотятся. Однако в мире наркотиков никто и никого не пожалеет, поэтому за ребятами начинает охотиться не только наркобарон из Амстердама, но и безжалостные картели из Колумбии. Теперь героям нужно поскорее уматывать ноги из родных мест, потому что если их найдут охотники, то с жизнью можно будет попрощаться.

Качество: BDRip 720p
Формат: MKV

Видео: h.264, 6 219 Кбит/с, 1280x536
Аудио#1: Русский (AC3, 2 ch, 448 Кбит/с)
скриншот  скриншот  скриншот  

Общее
Уникальный идентификатор : 214967101404304234611928278570350203025 (0xA1B928634DF93146A0E43FF59840D091)
Полное имя : D:\Gangsta.2018.P.BDRip.72Op.mkv
Формат : Matroska
Версия формата : Version 2
Размер файла : 5,93 Гбайт
Продолжительность : 2 ч. 7 м.
Режим общего битрейта : Переменный
Общий поток : 6668 Кбит/сек
Дата кодирования : UTC 2018-07-03 04:05:15
Программа кодирования : mkvmerge v8.3.0 ('Over the Horizon') 64bit
Библиотека кодирования : libebml v1.3.1 + libmatroska v1.4.2

Видео
Идентификатор : 1
Формат : AVC
Формат/Информация : Advanced Video Codec
Профиль формата : High@L4.1
Параметр CABAC формата : Да
Параметр RefFrames формата : 4 кадра
Идентификатор кодека : V_MPEG4/ISO/AVC
Продолжительность : 2 ч. 7 м.
Вид битрейта : Переменный
Битрейт : 6219 Кбит/сек
Максимальный битрейт : 6900 Кбит/сек
Ширина : 1280 пикселей
Высота : 536 пикселей
Соотношение сторон : 2,40:1
Режим частоты кадров : Постоянный
Частота кадров : 23,976 (24000/1001) кадра/сек
Стандарт вещания : Component
Цветовое пространство : YUV
Субдискретизация насыщенности : 4:2:0
Битовая глубина : 8 бит
Тип развёртки : Прогрессивная
Бит/(Пиксели*Кадры) : 0.370
Размер потока : 5,41 Гбайт (91%)
Default : Да
Forced : Нет
Цветовой диапазон : Limited
Основные цвета : BT.709
Характеристики трансфера : BT.709
Коэффициенты матрицы : BT.709

Аудио
Идентификатор : 2
Формат : AC-3
Формат/Информация : Audio Coding 3
Расширение режима : CM (complete main)
Параметр Endianness формата : Big
Идентификатор кодека : A_AC3
Продолжительность : 2 ч. 7 м.
Вид битрейта : Постоянный
Битрейт : 448 Кбит/сек
Каналы : 2 канала
Расположение каналов : Front: L R
Частота : 48,0 КГц
Частота кадров : 31,250 кадров/сек (1536 spf)
Метод сжатия : С потерями
Размер потока : 408 Мбайт (7%)
Default : Да
Forced : Нет

pb.wtf



Скачать Бандос через торрент https://img11.lostpic.net/2018/07/08/3fb1c1c09e060345684ce82bcba52c6a.jpg Скачать фильм Бандос через торрент бесплантно в хорошем качестве Описание: Четверо друзей давно уже промышляют сбытом наркотических средств, но они всегда мечтали провернуть какую-нибудь аферу, чтобы ... 10 10 5
Торрент: Зарегистрирован [2018-07-08 19:26] · скачан: 113 раз
Статус: # сомнительно
Размер: 5.93 GB
Как cкачать? Как скачать Бандос через торрент | qTorrent

% Раздел Тема Автор DL S | L
T Фильмы (мультфильмы) cо спонсором показа (Новинки AVI/MKV) [ 1.37 GB ] Бандос / Patser / Gangsta [2018 HDRip] MVO [КОЛОБОК] bober100 Скачать
1 | 0
T Фильмы (мультфильмы) cо спонсором показа (Новинки AVI/MKV) [ 2.05 GB ] Бандос / Patser / Gangsta [2018 HDRip] MVO [КОЛОБОК] bober100 Скачать
1 | 0

28-11-2019 20:33  

Отключить всю рекламу на сайте

09-07-2018 08:29 Бандос Скачать торрент  

трейлер

pb.wtf



    Дорогой пользователь! Огромная просьба, поблагодарите релизера, оцените раздачу и оставьте свои комментарий, если Вы скачали Бандос через торрент бесплатно! Внесите свою лепту в развитие PiratBit!
    Комментировать посты могут только пользователи прошедшие не сложную регистрацию
    Показать сообщения:    

    Бандос через торрент
    Скачать бесплатно Бандос
    Бандос скачать торрент
    Бандос смотреть онлайн
    Cкачать фильм Бандос бесплатно
    Бандос скачать торрент в хорошем качестве
    Бандос смотреть онлайн бесплатно в хорошем качестве


    Вы не можете начинать темы
    Вы не можете отвечать на сообщения
    Вы не можете редактировать свои сообщения
    Вы не можете удалять свои сообщения
    Вы не можете голосовать в опросах
    Вы не можете прикреплять файлы к сообщениям
    Вы можете скачивать файлы