Ссылка на приватное зеркало нашего сайта всего за 1$. Внимание количество ограничено!!!

2 сезон

iTunes

1 сезон

1

2 сезон

2 сезон

iTunes

1 сезон

RePack

30

Новинка

ВАЖНО

ИГРА 18+

pack

RePack

MK11
pack

Забери бонус

RePack

jed

!!Акция!!

Alien_Rage

RePack

fifa19

RePack

Assassins Creed: Odyssey

RePack

NEED FOR SPEED™ PAYBACK

4 сезон

9 сезон

Бесстыжие 9 сезон

Все сериалы

все сериалы на PB.wtf

RePack

FAR CRY 5
  

Эскобар / Loving Pablo (Фернандо Леон Де Араноа) [2017, биография, драма, криминал, WEB-DL 720p] DUB [iTunes] pb.wtf

Эскобар через торрент pb.wtf

Размер: 3.26 GB | Добавлен: 2 года 4 мес. назад | Торрент скачан:615 раз
Скачать  

08-07-2018 20:03 Эскобар Скачать торрент  

Эскобар / Loving Pablo
Год выпуска: 2017
Страна: Испания, Болгария, США
Жанр: биография, драма, криминал
Продолжительность: 01:45:54
Перевод: Дублированный | iTunes
Субтитры: отсутствуют

Режиссер: Фернандо Леон Де Араноа

rating

В ролях:

Хавьер Бардем, Пенелопа Крус, Питер Сарсгаард, Жульет Рестрепо, Оскар Хаэнада, Фреди Йэт, Рикардо Ниньо, Педро Кальво, Джованни Альварез, Дэвид Валенсиа

Описание:

История восхождения Пабло Эскобара - его стремительного пути к миллиардам, могуществу и непростительным преступлениям. Во всесильного наркобарона влюбляется журналистка, чьи мемуары положены в основу фильма.

Качество: WEB-DL 720p
Формат: MKV

Видео: MPEG-4 AVC, 3933 kb/s, 1280x534
Аудио: Русский (AC3, 6 ch, 384 Кбит/с)
скриншот  скриншот  скриншот  

Общее
Уникальный идентификатор : 198367116413062177442221919098680856881 (0x953C1DF050A6859AAF9FDDE6CB075131)
Полное имя : D:\Loving.Pablo.2O17.D.WEB-DL.72Op.mkv
Формат : Matroska
Версия формата : Version 2
Размер файла : 3,26 Гбайт
Продолжительность : 1 ч. 45 м.
Общий поток : 4405 Кбит/сек
Дата кодирования : UTC 2018-07-08 18:14:11
Программа кодирования : mkvmerge v8.3.0 ('Over the Horizon') 64bit
Библиотека кодирования : libebml v1.3.1 + libmatroska v1.4.2

Видео
Идентификатор : 1
Формат : AVC
Формат/Информация : Advanced Video Codec
Профиль формата : Main@L3.1
Параметр CABAC формата : Нет
Параметр RefFrames формата : 2 кадра
Идентификатор кодека : V_MPEG4/ISO/AVC
Продолжительность : 1 ч. 45 м.
Битрейт : 3933 Кбит/сек
Ширина : 1280 пикселей
Высота : 534 пикселя
Соотношение сторон : 2,40:1
Режим частоты кадров : Постоянный
Частота кадров : 23,976 (24000/1001) кадра/сек
Цветовое пространство : YUV
Субдискретизация насыщенности : 4:2:0
Битовая глубина : 8 бит
Тип развёртки : Прогрессивная
Бит/(Пиксели*Кадры) : 0.240
Размер потока : 2,91 Гбайт (89%)
Язык : English
Default : Да
Forced : Нет
Цветовой диапазон : Limited
Основные цвета : BT.709
Характеристики трансфера : BT.709
Коэффициенты матрицы : BT.709

Аудио
Идентификатор : 2
Формат : AC-3
Формат/Информация : Audio Coding 3
Расширение режима : CM (complete main)
Параметр Endianness формата : Big
Идентификатор кодека : A_AC3
Продолжительность : 1 ч. 45 м.
Вид битрейта : Постоянный
Битрейт : 384 Кбит/сек
Каналы : 6 каналов
Расположение каналов : Front: L C R, Side: L R, LFE
Частота : 48,0 КГц
Частота кадров : 31,250 кадров/сек (1536 spf)
Метод сжатия : С потерями
Размер потока : 291 Мбайт (9%)
Язык : Russian
Default : Да
Forced : Нет

Меню
00:00:00.000 : en:1
00:02:47.000 : en:2
00:13:05.000 : en:3
00:23:39.000 : en:4
00:34:37.000 : en:5
00:45:46.000 : en:6
00:55:39.000 : en:7
01:04:46.000 : en:8
01:13:29.000 : en:9
01:22:51.000 : en:10
01:32:34.000 : en:11
01:39:48.000 : en:12

pb.wtf



Скачать Эскобар через торрент http://img12.lostpic.net/2018/06/19/f73519fc6a7fae1d22fb833b5f21fad7.jpg Скачать фильм Эскобар через торрент бесплантно в хорошем качестве Описание: История восхождения Пабло Эскобара - его стремительного пути к миллиардам, могуществу и непростительным преступлениям. Во ... 9.7 10 15
Торрент: Зарегистрирован [2018-07-08 20:03] · скачан: 615 раз
Статус: √ проверено
Размер: 3.26 GB
Как cкачать? Как скачать Эскобар через торрент | qTorrent

% Раздел Тема Автор DL S | L
Фильмы (WEB-DL 720p, 1080p) [ 3.62 GB ] Эскобар / Loving Pablo [2017 биография WEB-DL 1080p] bober100 Скачать
3 | 0
Фильмы (Blu-ray, BD-Remux, HDDVD) [ 32.87 GB ] Эскобар / Loving Pablo [2017 биография Blu-ray 1080p] [RUS Transfer] DUB [] bober100 Скачать
1 | 0
Фильмы [HD 720p, 1080p] (Хороший звук DUB, MVO) [ 3.55 GB ] Эскобар / Loving Pablo [2017 биография BDRip 720p] - ExKinoRay Enigma2010 Скачать
2 | 0
Фильмы 2017 [DVDrip, WEB-DLRip, HDrip] (DUB, MVO) [ 1.94 GB ] Эскобар / Loving Pablo [2017 биография BDRip-AVC] [RUS Transfer] DUB [] bober100 Скачать
1 | 0
Фильмы 2017 [DVDrip, WEB-DLRip, HDrip] (DUB, MVO) [ 754 MB ] Эскобар / Loving Pablo [2017 биография BDRip] DUB [ BD RUS] bober100 Скачать
1 | 0
Фильмы 2017 [DVDrip, WEB-DLRip, HDrip] (DUB, MVO) [ 1.46 GB ] Эскобар / Loving Pablo [2017 биография BDRip] DUB [ BD RUS] bober100 Скачать
1 | 0
Фильмы 2017 [DVDrip, WEB-DLRip, HDrip] (DUB, MVO) [ 1.46 GB ] Эскобар / Loving Pablo [2017 биография BDRip] - [] Twi7ter Скачать
1 | 0

28-11-2019 20:33  

Отключить всю рекламу на сайте

    Дорогой пользователь! Огромная просьба, поблагодарите релизера, оцените раздачу и оставьте свои комментарий, если Вы скачали Эскобар через торрент бесплатно! Внесите свою лепту в развитие PiratBit!
    Комментировать посты могут только пользователи прошедшие не сложную регистрацию
    Показать сообщения:    

    Эскобар через торрент
    Скачать бесплатно Эскобар
    Эскобар скачать торрент
    Эскобар смотреть онлайн
    Cкачать фильм Эскобар бесплатно
    Эскобар скачать торрент в хорошем качестве
    Эскобар смотреть онлайн бесплатно в хорошем качестве


    Вы не можете начинать темы
    Вы не можете отвечать на сообщения
    Вы не можете редактировать свои сообщения
    Вы не можете удалять свои сообщения
    Вы не можете голосовать в опросах
    Вы не можете прикреплять файлы к сообщениям
    Вы можете скачивать файлы