Ссылка на приватное зеркало всего за 1$. Внимание количество ограничено!!!

iTunes

iTunes

iTunes

1

iTunes

iTunes

iTunes

WEBRip

iTunes

30
pack

$ от Little Big

ВАЖНО

!!Акция!!

Alien_RageХит недели

RePack

Resident Evil 21

ИГРА 18+

pack

RePack

jed

!!Акция!!

Alien_Rage

RePack

fifa19

RePack

Assassins Creed: Odyssey

RePack

NEED FOR SPEED™ PAYBACK

4 сезон

9 сезон

Бесстыжие 9 сезон

Все сериалы

все сериалы на PB.wtf

RePack

FAR CRY 5
  

Как надрессировать своего мужа / How to Train Your Husband / How to Pick Your Second Husband First (Сандра Л. Мартин) [2018, комедия, WEB-DL 720p] MVO ["Синема УС"] pb.wtf

Как надрессировать своего мужа через торрент pb.wtf

Размер: 2.96 GB | Добавлен: 2 года 1 мес. назад | Торрент скачан:27 раз
Скачать  

09-07-2018 07:05 Как надрессировать своего мужа Скачать торрент  

Как надрессировать своего мужа / How to Train Your Husband / How to Pick Your Second Husband First
Год выпуска: 2018
Страна: США
Жанр: комедия
Продолжительность: 01:28:02
Перевод: Любительский (многоголосый) | "Синема УС"
Субтитры: отсутствуют

Режиссер: Сандра Л. Мартин

rating

В ролях:

Джули Гонсало, Джонатан Чейз, Андре Холл, Карла Мосли, Лусиана Фолхебер, Джордан Монахэн, Кайла Хэррити, Форбс Райли, Кейт Джурди, Мэтт Уолтон

Описание:

Семейный психолог пытается исправить свой собственный брак, сосредоточившись на том, как изменить своего мужа. Но всё осложняется, когда она заводит собаку, для того, чтобы написать очередную свою книгу. Справится ли она с достижением своей цели и написанием книги?

Качество: WEB-DL 720p
Формат: MKV

Видео: H.264, 4 425 kb/s, 1280x718
Аудио#1: Русский, (AC3, 2 ch, 384 Кбит/с)
скриншот  скриншот  скриншот  

Общее
Уникальный идентификатор : 176344050302243770750925347915088148175 (0x84AAA0F26DA3ED68B5B5641CB3B236CF)
Полное имя : D:\How.to.Train.Your.Husband.2017.P.WEB-DL.72Op_KOSHARA.mkv
Формат : Matroska
Версия формата : Version 2
Размер файла : 2,96 Гбайт
Продолжительность : 1 ч. 28 м.
Режим общего битрейта : Переменный
Общий поток : 4810 Кбит/сек
Дата кодирования : UTC 2018-07-03 05:23:49
Программа кодирования : mkvmerge v8.3.0 ('Over the Horizon') 64bit
Библиотека кодирования : libebml v1.3.1 + libmatroska v1.4.2

Видео
Идентификатор : 1
Формат : AVC
Формат/Информация : Advanced Video Codec
Профиль формата : High@L4.1
Параметр CABAC формата : Да
Параметр RefFrames формата : 4 кадра
Идентификатор кодека : V_MPEG4/ISO/AVC
Продолжительность : 1 ч. 28 м.
Вид битрейта : Переменный
Битрейт : 4425 Кбит/сек
Максимальный битрейт : 5000 Кбит/сек
Ширина : 1280 пикселей
Высота : 718 пикселей
Соотношение сторон : 16:9
Режим частоты кадров : Постоянный
Частота кадров : 23,976 (24000/1001) кадра/сек
Стандарт вещания : Component
Цветовое пространство : YUV
Субдискретизация насыщенности : 4:2:0
Битовая глубина : 8 бит
Тип развёртки : Прогрессивная
Бит/(Пиксели*Кадры) : 0.197
Размер потока : 2,66 Гбайт (90%)
Default : Да
Forced : Нет
Цветовой диапазон : Limited
Основные цвета : BT.709
Характеристики трансфера : BT.709
Коэффициенты матрицы : BT.709

Аудио
Идентификатор : 2
Формат : AC-3
Формат/Информация : Audio Coding 3
Расширение режима : CM (complete main)
Параметр Endianness формата : Big
Идентификатор кодека : A_AC3
Продолжительность : 1 ч. 28 м.
Вид битрейта : Постоянный
Битрейт : 384 Кбит/сек
Каналы : 2 канала
Расположение каналов : Front: L R
Частота : 48,0 КГц
Частота кадров : 31,250 кадров/сек (1536 spf)
Метод сжатия : С потерями
Размер потока : 242 Мбайт (8%)
Default : Да
Forced : Нет

pb.wtf



Скачать Как надрессировать своего мужа через торрент https://img11.lostpic.net/2018/07/09/ba3ed62c6dee4a49899b3e5e4916764e.jpg Скачать фильм Как надрессировать своего мужа через торрент бесплантно в хорошем качестве Описание: Семейный психолог пытается исправить свой собственный брак, сосредоточившись на том, как изменить своего мужа. Но всё ... 8.2 10 5
Торрент: Зарегистрирован [2018-07-09 07:05] · скачан: 27 раз
Статус: T временная
Размер: 2.96 GB
Как cкачать? Как скачать Как надрессировать своего мужа через торрент | qTorrent

% Раздел Тема Автор DL S | L
T Фильмы (мультфильмы) cо спонсором показа (Новинки AVI/MKV) [ 1.37 GB ] Как надрессировать своего мужа / How to Train Your Husband / How to Pick Your Second Husband First [2018 WEB-DLRip] MVO ["Синема УС"] bober100 Скачать
1 | 0

28-11-2019 20:33  

Отключить всю рекламу на сайте

    Дорогой пользователь! Огромная просьба, поблагодарите релизера, оцените раздачу и оставьте свои комментарий, если Вы скачали Как надрессировать своего мужа через торрент бесплатно! Внесите свою лепту в развитие PiratBit!
    Комментировать посты могут только пользователи прошедшие не сложную регистрацию
    Показать сообщения:    

    Как надрессировать своего мужа через торрент
    Скачать бесплатно Как надрессировать своего мужа
    Как надрессировать своего мужа скачать торрент
    Как надрессировать своего мужа смотреть онлайн
    Cкачать фильм Как надрессировать своего мужа бесплатно
    Как надрессировать своего мужа скачать торрент в хорошем качестве
    Как надрессировать своего мужа смотреть онлайн бесплатно в хорошем качестве


    Вы не можете начинать темы
    Вы не можете отвечать на сообщения
    Вы не можете редактировать свои сообщения
    Вы не можете удалять свои сообщения
    Вы не можете голосовать в опросах
    Вы не можете прикреплять файлы к сообщениям
    Вы можете скачивать файлы