Ссылка на приватное зеркало нашего сайта всего за 1$. Внимание количество ограничено!!!

2 сезон

iTunes

1 сезон

1

2 сезон

2 сезон

iTunes

1 сезон

RePack

30

Новинка

ВАЖНО

ИГРА 18+

pack

RePack

MK11
pack

Забери бонус

RePack

jed

!!Акция!!

Alien_Rage

RePack

fifa19

RePack

Assassins Creed: Odyssey

RePack

NEED FOR SPEED™ PAYBACK

4 сезон

9 сезон

Бесстыжие 9 сезон

Все сериалы

все сериалы на PB.wtf

RePack

FAR CRY 5
  

3 дня на убийство / 3 Days to Kill (МакДжи) [2014 г., Боевик, Криминал, Триллер, Драма, Комедия, BDRip 1080p, HEVC (10bit ), Дубляж] [Расширенная версия / Extended Cut] pb.wtf

3 дня на убийство через торрент pb.wtf

Размер: 4.06 GB | Добавлен: 2 года 4 мес. назад | Торрент скачан:126 раз
Скачать  

09-07-2018 07:10 3 дня на убийство Скачать торрент  

3 дня на убийство / 3 Days to Kill
Год выпуска: 2014
Страна: Франция, США
Жанр: Боевик, Криминал, Триллер, Драма, Комедия
Продолжительность: 02:02:19
Перевод: Дубляж
Субтитры: Русские (форсированные, полные), английские

Режиссер: МакДжи

rating

В ролях: Кевин Костнер, Эмбер Хёрд, Хейли Стайнфелд, Конни Нильсен, Томас Лемаркус, Рихард Заммель, Марк Андреони, Бруно Риччи, Йонас Блоке, Эрик Эбони

Описание: Итан Реннер один из лучших агентов. Чтоб не потерять свою семью, в течение 10 лет ему пришлось скрывать от них, чем он занимается. Но из-за этих тайн у него портится отношения с супругой. Вскоре он узнает, что смертельно болен. У него рак мозга последней стадии и жить ему остался не больше 6 месяцев. Он собирается уйти в отставку, чтобы провести последние дни со своей семьей, и наладить с ними отношения.
Доп. информация: -
H.265/HEVC (High Efficiency Video Coding) - это новый стандарт кодирования видео.
- Стандарт H.265/HEVC является логическим продолжением стандарта
H.264/AVC (Advanced Video Coding), и характеризуется более эффективными
алгоритмами сжатия, а также поддержкой высокого разрешения вплоть до 8K UHD
(8192x4320). Первая версия стандарта H.265 была опубликована в начале 2013 года.
- Рипы в фомате HEVC поддерживается не всеми аппаратными проигрывателями.
- Для корректного воспроизведения может потребоваться обновление ПО.
- Владельцам несовместимого железа просьба не беспокоить,
есть альтернативные релизы.
Качество: BDRip 1080p
Формат: MKV
Видео кодек: H.265
Аудио кодек: AC3
Видео: 1920x808, ~3850 Kbps
Аудио#1: AC3, 6 ch, 448 Kbps (Дублированный)
Аудио#2: AC3, 6 ch, 448 Kbps (Оригинал)
Релиз от: Joker6346
Общее
Уникальный идентификатор : 258819656383570103503103812544914764408 (0xC2B6DA46C79DA861BDEF1229B0BBB278)
Полное имя : J:\ФИЛЬМЫ\3 дня на убийство. (Extended Cut) 2014. 1080p. HEVC..mkv
Формат : Matroska
Версия формата : Version 4 / Version 2
Размер файла : 4,06 Гбайт
Продолжительность : 2 ч. 2 м.
Общий поток : 4749 Кбит/сек
Дата кодирования : UTC 2018-07-06 18:19:27
Программа кодирования : mkvmerge v21.0.0 ('Tardigrades Will Inherit The Earth') 64-bit
Библиотека кодирования : libebml v1.3.5 + libmatroska v1.4.8
Обложка : Yes
Attachments : cover.jpg

Видео
Идентификатор : 1
Формат : HEVC
Формат/Информация : High Efficiency Video Coding
Профиль формата : Main 10@L5.1@High
Идентификатор кодека : V_MPEGH/ISO/HEVC
Продолжительность : 2 ч. 2 м.
Битрейт : 3850 Кбит/сек
Ширина : 1920 пикселей
Высота : 808 пикселей
Соотношение сторон : 2,40:1
Режим частоты кадров : Постоянный
Частота кадров : 23,976 (24000/1001) кадра/сек
Цветовое пространство : YUV
Субдискретизация насыщенности : 4:2:0
Битовая глубина : 10 бит
Бит/(Пиксели*Кадры) : 0.104
Размер потока : 3,29 Гбайт (81%)
Заголовок : BDRemux
Библиотека кодирования : x265 2.8+19-bcdc610cf5f0:[Windows][GCC 7.3.0][64 bit] 10bit
Настройки программы : cpuid=1049583 / frame-threads=5 / numa-pools=4 / wpp / no-pmode / no-pme / no-psnr / no-ssim / log-level=3 / input-csp=1 / input-res=1920x808 / interlace=0 / total-frames=0 / level-idc=51 / high-tier=1 / uhd-bd=0 / ref=5 / allow-non-conformance / no-repeat-headers / annexb / no-aud / no-hrd / info / hash=0 / no-temporal-layers / open-gop / min-keyint=24 / keyint=240 / gop-lookahead=0 / bframes=6 / b-adapt=2 / b-pyramid / bframe-bias=0 / rc-lookahead=20 / lookahead-slices=5 / scenecut=40 / radl=0 / no-intra-refresh / ctu=64 / min-cu-size=8 / no-rect / no-amp / max-tu-size=32 / tu-inter-depth=1 / tu-intra-depth=1 / limit-tu=0 / rdoq-level=0 / dynamic-rd=0.00 / no-ssim-rd / signhide / no-tskip / nr-intra=0 / nr-inter=0 / no-constrained-intra / strong-intra-smoothing / max-merge=2 / limit-refs=3 / no-limit-modes / me=1 / subme=5 / merange=57 / temporal-mvp / weightp / no-weightb / no-analyze-src-pics / deblock=-2:-2 / sao / no-sao-non-deblock / rd=3 / no-early-skip / rskip / no-fast-intra / no-tskip-fast / no-cu-lossless / no-b-intra / no-splitrd-skip / rdpenalty=0 / psy-rd=2.00 / psy-rdoq=0.00 / no-rd-refine / no-lossless / cbqpoffs=0 / crqpoffs=0 / rc=crf / crf=20.0 / qcomp=0.60 / qpstep=4 / stats-write=0 / stats-read=0 / vbv-maxrate=160000 / vbv-bufsize=160000 / vbv-init=0.9 / crf-max=30.0 / crf-min=0.0 / ipratio=1.40 / pbratio=1.30 / aq-mode=1 / aq-strength=1.00 / cutree / zone-count=0 / no-strict-cbr / qg-size=32 / no-rc-grain / qpmax=69 / qpmin=0 / no-const-vbv / sar=1 / overscan=0 / videoformat=5 / range=0 / colorprim=2 / transfer=2 / colormatrix=2 / chromaloc=0 / display-window=0 / max-cll=0,0 / min-luma=0 / max-luma=1023 / log2-max-poc-lsb=8 / vui-timing-info / vui-hrd-info / slices=1 / no-opt-qp-pps / no-opt-ref-list-length-pps / no-multi-pass-opt-rps / scenecut-bias=0.05 / no-opt-cu-delta-qp / no-aq-motion / no-hdr / no-hdr-opt / no-dhdr10-opt / no-idr-recovery-sei / analysis-reuse-level=5 / scale-factor=0 / refine-intra=0 / refine-inter=0 / refine-mv=0 / no-limit-sao / ctu-info=0 / no-lowpass-dct / refine-mv-type=0 / copy-pic=1 / max-ausize-factor=1.0 / no-dynamic-refine / no-single-sei
Язык : English
Default : Да
Forced : Нет

Аудио #1
Идентификатор : 2
Формат : AC-3
Формат/Информация : Audio Coding 3
Идентификатор кодека : A_AC3
Продолжительность : 2 ч. 2 м.
Вид битрейта : Постоянный
Битрейт : 448 Кбит/сек
Каналы : 6 каналов
Расположение каналов : Front: L C R, Side: L R, LFE
Частота : 48,0 КГц
Частота кадров : 31,250 кадров/сек (1536 SPF)
Битовая глубина : 16 бит
Метод сжатия : С потерями
Размер потока : 392 Мбайт (9%)
Заголовок : DUB-Blu-ray Rus
Язык : Russian
ServiceKind/String : Complete Main
Default : Да
Forced : Нет

Аудио #2
Идентификатор : 3
Формат : AC-3
Формат/Информация : Audio Coding 3
Идентификатор кодека : A_AC3
Продолжительность : 2 ч. 2 м.
Вид битрейта : Постоянный
Битрейт : 448 Кбит/сек
Каналы : 6 каналов
Расположение каналов : Front: L C R, Side: L R, LFE
Частота : 48,0 КГц
Частота кадров : 31,250 кадров/сек (1536 SPF)
Битовая глубина : 16 бит
Метод сжатия : С потерями
Размер потока : 392 Мбайт (9%)
Заголовок : Оригинал
Язык : English
ServiceKind/String : Complete Main
Default : Нет
Forced : Нет

Текст #1
Идентификатор : 4
Формат : UTF-8
Идентификатор кодека : S_TEXT/UTF8
Идентификатор кодека/Информация : UTF-8 Plain Text
Продолжительность : 1 ч. 43 м.
Битрейт : 4 бит/сек
ElementCount : 71
Размер потока : 3,75 Кбайт (0%)
Заголовок : Sub-forced
Язык : Russian
Default : Да
Forced : Нет

Текст #2
Идентификатор : 5
Формат : UTF-8
Идентификатор кодека : S_TEXT/UTF8
Идентификатор кодека/Информация : UTF-8 Plain Text
Продолжительность : 1 ч. 54 м.
Битрейт : 79 бит/сек
ElementCount : 1220
Размер потока : 66,4 Кбайт (0%)
Заголовок : Sub-full
Язык : Russian
Default : Нет
Forced : Нет

Текст #3
Идентификатор : 6
Формат : UTF-8
Идентификатор кодека : S_TEXT/UTF8
Идентификатор кодека/Информация : UTF-8 Plain Text
Продолжительность : 1 ч. 55 м.
Битрейт : 54 бит/сек
ElementCount : 1425
Размер потока : 45,7 Кбайт (0%)
Заголовок : Sub-SDH
Язык : English
Default : Нет
Forced : Нет

Меню
00:00:00.000 : :Chapter 1
00:03:35.131 : :Chapter 2
00:06:58.543 : :Chapter 3
00:10:56.572 : :Chapter 4
00:16:00.709 : :Chapter 5
00:20:51.708 : :Chapter 6
00:25:05.962 : :Chapter 7
00:29:24.345 : :Chapter 8
00:34:20.391 : :Chapter 9
00:37:46.806 : :Chapter 10
00:40:27.299 : :Chapter 11
00:44:05.225 : :Chapter 12
00:49:24.794 : :Chapter 13
00:53:16.443 : :Chapter 14
00:57:40.873 : :Chapter 15
01:08:28.395 : :Chapter 16
01:13:37.621 : :Chapter 17
01:19:51.828 : :Chapter 18
01:25:59.070 : :Chapter 19
01:32:28.167 : :Chapter 20
01:39:10.569 : :Chapter 21
01:42:49.412 : :Chapter 22
01:51:49.452 : :Chapter 23
01:54:55.596 : :Chapter 24
02:02:17.538 : :Chapter 25

pb.wtf



Скачать 3 дня на убийство через торрент https://d.radikal.ru/d13/1807/0e/06dd67f25b47.jpg Скачать фильм 3 дня на убийство через торрент бесплантно в хорошем качестве Описание: Итан Реннер один из лучших агентов. Чтоб не потерять свою семью, в течение 10 лет ему пришлось скрывать от них, чем он ... 5 10 1
Торрент: Зарегистрирован [2018-07-09 07:10] · скачан: 126 раз
Статус: √ проверено
Размер: 4.06 GB
Как cкачать? Как скачать 3 дня на убийство через торрент | qTorrent

% Раздел Тема Автор DL S | L
Фильмы (Blu-ray, BD-Remux, HDDVD) [ 25.66 GB ] 3 дня на убийство / 3 Days to Kill [2014 Греция Россия BD Remux 1080p] [Цифровая лицензия / ] Messa-fan Скачать
1 | 0
Фильмы 2014 [DVDrip, WEB-DLRip, HDrip] [ 1.46 GB ] 3 дня на убийство / Days to Kill [2014 HDRip-AVC] ] От R.G. PiratFilms White Smoke Скачать
1 | 0
Фильмы 2014 [DVDrip, WEB-DLRip, HDrip] [ 2.13 GB ] 3 дня на убийство / 3 Days to Kill [2014 Греция Россия HDRip-AVC [ - / ] flatro1 Скачать
1 | 0

28-11-2019 20:33  

Отключить всю рекламу на сайте

    Дорогой пользователь! Огромная просьба, поблагодарите релизера, оцените раздачу и оставьте свои комментарий, если Вы скачали 3 дня на убийство через торрент бесплатно! Внесите свою лепту в развитие PiratBit!
    Комментировать посты могут только пользователи прошедшие не сложную регистрацию
    Показать сообщения:    

    3 дня на убийство через торрент
    Скачать бесплатно 3 дня на убийство
    3 дня на убийство скачать торрент
    3 дня на убийство смотреть онлайн
    Cкачать фильм 3 дня на убийство бесплатно
    3 дня на убийство скачать торрент в хорошем качестве
    3 дня на убийство смотреть онлайн бесплатно в хорошем качестве


    Вы не можете начинать темы
    Вы не можете отвечать на сообщения
    Вы не можете редактировать свои сообщения
    Вы не можете удалять свои сообщения
    Вы не можете голосовать в опросах
    Вы не можете прикреплять файлы к сообщениям
    Вы можете скачивать файлы