2 сезон

iTunes

1 сезон

1

iTunes

iTunes

iTunes

1 сезон

RePack

30

ИГРА 18+

pack

ВАЖНО

!!Акция!!

Alien_RageХит недели

RePack

MK11
pack

Забери бонус

RePack

jed

!!Акция!!

Alien_Rage

RePack

fifa19

RePack

Assassins Creed: Odyssey

RePack

NEED FOR SPEED™ PAYBACK

4 сезон

9 сезон

Бесстыжие 9 сезон

Все сериалы

все сериалы на PB.wtf

RePack

FAR CRY 5
  

Скелет в шкафу / Серии: 1-5 из ??? (Роман Иванов) [2018, Мелодрама, SATRip] pb.wtf

Скелет в шкафу через торрент pb.wtf

Размер: 1.91 GB | Добавлен: 2 года 3 мес. назад | Торрент скачан:10 раз
Скачать  

09-07-2018 08:00 Скелет в шкафу Скачать торрент  

Скелет в шкафуГод выпуска: 2018
Страна: Россия
Жанр: Мелодрама
Продолжительность: ~ 00:28:00
Субтитры: отсутствуют

Режиссер: Роман Иванов

В ролях:

Алексей Субботин, Евгений Еськов, Светлана Фатина, Анастасия Тюфякина, Сергей Кириллов, Арсений Михеев

Описание:

Скелет в шкафу» — это городские истории из жизни обычных людей, которые волею судеб попали в неожиданную ситуацию: они ненароком узнали чью-то сокровенную тайну или их собственный секрет стал известен кому-то из близких. Каждая серия — отдельный рассказ, основанный на реальных событиях. Главные герои в каждом из эпизодов разные, но объединяют их похожие интриги, отчаянные попытки выпутаться из неловкой ситуации, кого-то выслеживают и обязательно в чем-то подозревают. Повествуя свою историю, главный герой вспоминает то, что с ним произошло, дает развернутые комментарии, записанные в формате селфи, и делится со зрителями своими переживаниями. Подобная форма восстанавливает цепочку событий, придает проекту форму откровенной исповеди и делает его более живым и эмоциональным.

Качество: SATRip
Формат: AVI

Видео: XviD, 1800 Кбит/с, 720x400
Аудио: МР3, 2 ch, 128 Кбит/с
скриншот  скриншот  скриншот  

Общее
Полное имя : D:\Скелет в шкафу (2018)\Skelet.v.shkafu.01.SATRip.avi
Формат : AVI
Формат/Информация : Audio Video Interleave
Размер файла : 390 Мбайт
Продолжительность : 28 м. 10 с.
Общий поток : 1938 Кбит/сек
Программа кодирования : VirtualDubMod 1.5.10.3 | www.virtualdub-fr.org || (build 2550/release)
Библиотека кодирования : VirtualDubMod build 2550/release

Видео
Идентификатор : 0
Формат : MPEG-4 Visual
Профиль формата : Advanced Simple@L5
Параметр BVOP формата : 2
Параметр QPel формата : Нет
Параметр GMC формата : Без точки перехода
Параметр матрицы формата : Default (H.263)
Идентификатор кодека : XVID
Идентификатор кодека/Подсказка : XviD
Продолжительность : 28 м. 10 с.
Битрейт : 1800 Кбит/сек
Ширина : 720 пикселей
Высота : 400 пикселей
Соотношение сторон : 16:9
Частота кадров : 25,000 кадров/сек
Цветовое пространство : YUV
Субдискретизация насыщенности : 4:2:0
Битовая глубина : 8 бит
Тип развёртки : Прогрессивная
Метод сжатия : С потерями
Бит/(Пиксели*Кадры) : 0.250
Размер потока : 363 Мбайт (93%)
Библиотека кодирования : XviD 1.2.1 (UTC 2008-12-04)

Аудио
Идентификатор : 1
Формат : MPEG Audio
Версия формата : Version 1
Профиль формата : Layer 3
Режим : Joint stereo
Расширение режима : MS Stereo
Идентификатор кодека : 55
Идентификатор кодека/Подсказка : MP3
Продолжительность : 28 м. 10 с.
Вид битрейта : Постоянный
Битрейт : 128 Кбит/сек
Каналы : 2 канала
Частота : 48,0 КГц
Метод сжатия : С потерями
Размер потока : 25,8 Мбайт (7%)
Выравнивание : Соединение по промежуткам
Продолжительность промежутка : 40 мс. (1,00 видеокадр)
Время предзагрузки промежутка : 504 мс.
Библиотека кодирования : LAME3.99r
Настройки программы : -m j -V 4 -q 9 -lowpass 17 -b 128

Когда раздача ведётся путём добавления новых серий, при каждом добавлении создётся новый торрент. Чтобы начать докачку новой серии, пользователям необходимо сделать следующее:
(1) остановить скачивание,
(2) удалить старый торрент у себя из клиента (старые серии удалять не надо),
(3) скачать новый торрент и запустить его у себя в клиенте вместо старого, при этом указать клиенту путь в старую папку, куда и должно происходить скачивание новых серий.
Ваш клиент при этом должен произвести хеширование (проверку) старой папки (если не производит сам - помогите ему сделать это), и будет докачивать только те серии, которых у вас ещё нет. Старые серии при этом не удаляются, а продолжают раздаваться!
Eсли вы уже удалили старые серии, то предотвратить повторную закачку старых серий можно, отжав галочку в соответсвующих местах при запуске нового торрента. По возможности, желательно не удалять старые серии как можно дольше, чтобы релизёр не столько продолжал раздавать старые серии, а смог сконцентрироваться на новых.
pb.wtf



Скачать Скелет в шкафу через торрент http://i105.fastpic.ru/big/2018/0709/61/a8ca279f8a55fdab6fe4180788247461.jpg Скачать фильм Скелет в шкафу через торрент бесплантно в хорошем качестве Описание: Скелет в шкафу» — это городские истории из жизни обычных людей, которые волею судеб попали в неожиданную ситуацию: они ненароком ... 8.6 10 5
Торрент: Зарегистрирован [2018-07-13 10:55] · скачан: 10 раз
Статус: √ проверено
Размер: 1.91 GB
Как cкачать? Как скачать Скелет в шкафу через торрент | qTorrent

28-11-2019 20:33  

Отключить всю рекламу на сайте

    Дорогой пользователь! Огромная просьба, поблагодарите релизера, оцените раздачу и оставьте свои комментарий, если Вы скачали Скелет в шкафу через торрент бесплатно! Внесите свою лепту в развитие PiratBit!
    Комментировать посты могут только пользователи прошедшие не сложную регистрацию
    Показать сообщения:    

    Скелет в шкафу через торрент
    Скачать бесплатно Скелет в шкафу
    Скелет в шкафу скачать торрент
    Скелет в шкафу смотреть онлайн
    Cкачать фильм Скелет в шкафу бесплатно
    Скелет в шкафу скачать торрент в хорошем качестве
    Скелет в шкафу смотреть онлайн бесплатно в хорошем качестве


    Вы не можете начинать темы
    Вы не можете отвечать на сообщения
    Вы не можете редактировать свои сообщения
    Вы не можете удалять свои сообщения
    Вы не можете голосовать в опросах
    Вы не можете прикреплять файлы к сообщениям
    Вы можете скачивать файлы