Ссылка на приватное зеркало нашего сайта всего за 1$. Внимание количество ограничено!!!

2 сезон

iTunes

1 сезон

1

iTunes

iTunes

iTunes

1 сезон

RePack

30

ИГРА 18+

pack

ВАЖНО

!!Акция!!

Alien_RageХит недели

RePack

MK11
pack

Забери бонус

RePack

jed

!!Акция!!

Alien_Rage

RePack

fifa19

RePack

Assassins Creed: Odyssey

RePack

NEED FOR SPEED™ PAYBACK

4 сезон

9 сезон

Бесстыжие 9 сезон

Все сериалы

все сериалы на PB.wtf

RePack

FAR CRY 5
  

Sпарта / Серия 1-8 из 8 / (Егор Баранов) [2018 г., Детектив, Драма, SATRip] pb.wtf

Sпарта через торрент pb.wtf

Размер: 5.66 GB | Добавлен: 2 года 3 мес. назад | Торрент скачан:78 раз
Скачать  

09-07-2018 14:17 Sпарта Скачать торрент  

Sпарта / Серия 1- 8 из 8 /
Год выпуска: 2018
Страна: Россия
Жанр: Детектив, Драма
Продолжительность: 8 х 00:46:00
Субтитры: Нет

Режиссер: Егор Баранов

В ролях: Александр Петров, Артём Ткаченко, Алиса Лозовская, Валерия Шкирандо, Олег Гаас, Яна Енжаева, Оксана Базилевич, Ольга Сутулова, Роман Агеев, Михаил Грубов, Филипп Горенштейн, Ян Гахарманов, Юлия Марченко, Марина Калецкая, Мария Смольникова, Алла Еминцева, Ольга Виниченко, Марина Даминева, Ольга Павлюкова

Описание: Безобидной лжи не бывает. Даже самая потаенная мысль рано или поздно пересекает границы души и оказывается в реальности настоящего времени. Представьте, что такая реальность материальна, она действительно существует, и ваши самые безжалостные фантазии находят в ней воплощение. Эта история о человеке, для которого Влacть, вседозволенность, безнаказанность слились воедино «Sпарта» — это игра без правил, в которой виртуальное становится реальным.

Качество: SATRip
Формат: AVI
Видео кодек: XviD
Аудио кодек: MP3
Видео: 720x400 (1.80:1), 25 fps, XviD build 50 ~1800 kbps
Аудио#1: 48 kHz, MPEG Layer 3, 2 ch, ~128.00 kbps
скриншот   скриншот   скриншот   скриншот  

General
Complete name : H:\релизы.торрентфайл\Спарта(2018)\Sparta.01.SATRip.[www.riperam.org].avi
Format : MPEG-4
Format profile : Base Media
Codec ID : isom
File size : 737 MiB
Duration : 53mn 15s
Overall bit rate : 1 934 Kbps
Writing application : Lavf54.63.104

Video
ID : 1
Format : MPEG-4 Visual
Format profile : Advanced Simple@L5
Format settings, BVOP : Yes
Format settings, QPel : No
Format settings, GMC : No warppoints
Format settings, Matrix : Default (H.263)
Codec ID : 20
Duration : 53mn 15s
Bit rate mode : Variable
Bit rate : 1 800 Kbps
Maximum bit rate : 9 500 Kbps
Width : 720 pixels
Height : 400 pixels
Display aspect ratio : 16:9
Frame rate mode : Constant
Frame rate : 25.000 fps
Color space : YUV
Chroma subsampling : 4:2:0
Bit depth : 8 bits
Scan type : Progressive
Compression mode : Lossy
Bits/(Pixel*Frame) : 0.250
Stream size : 686 MiB (93%)
Writing library : XviD 1.2.1 (UTC 2008-12-04)

Audio
ID : 2
Format : MPEG Audio
Format version : Version 1
Format profile : Layer 3
Mode : Joint stereo
Mode extension : MS Stereo
Codec ID : 6B
Duration : 53mn 15s
Bit rate mode : Constant
Bit rate : 128 Kbps
Channel(s) : 2 channels
Sampling rate : 48.0 KHz
Compression mode : Lossy
Stream size : 14.8 MiB (2%)
Writing library : LAME3.99r
Encoding settings : -m j -V 4 -q 9 -lowpass 17 -b 128
Language : unk

Внимание! Раздача ведётся путём добавления новых серий; при каждом добавлении создётся новый торрент. Чтобы начать докачку новой серии, пользователям необходимо сделать следующее:
  • Остановить скачивание,
  • Удалить старый торрент у себя из клиента (старые серии удалять не надо),
  • Скачать новый торрент и запустить его у себя в клиенте вместо старого, при этом указать клиенту путь в старую папку куда и должно происходить скачивание новых серий.
Ваш клиент при этом должен произвести хеширование (проверку) старой папки (если не производит сам - помогите ему сделать это), и будет докачивать только те серии которых у вас ещё нет. Старые серии при этом не удаляются, а продолжают раздаваться!

Eсли вы уже удалили старые серии, то предотвратить повторную закачку старых серий можно, отжав галочку в соответсвующих местах при запуске нового торрента. По возможности, желательно не удалять старые серии как можно дольше чтобы релизёр не столько продолжал раздавать старые серии, а смог сконцентрироваться на новых.
pb.wtf



Скачать Sпарта через торрент http://pic1.kartinco.top/images/11/bfd5b.jpg Скачать фильм Sпарта через торрент бесплантно в хорошем качестве Описание: Безобидной лжи не бывает. Даже самая потаенная мысль рано или поздно пересекает границы души и оказывается в реальности ... 8.9 10 19
Торрент: Зарегистрирован [2018-07-19 21:58] · скачан: 78 раз
Статус: √ проверено
Размер: 5.66 GB
Как cкачать? Как скачать Sпарта через торрент | qTorrent

% Раздел Тема Автор DL S | L
Наши сериалы [ 10.8 GB ] Sпарта / Сезон: 1 / Серии: 1-8 из 8 [2018 HDTVRip 720p] bober100 Скачать
1 | 0
Наши сериалы [ 6.42 GB ] Sпарта / Сезон: 1 / Серии: 1-8 из 8 [2018 HDTVRip-AVC] bober100 Скачать
1 | 0
Наши сериалы [ 5.85 GB ] Sпарта / Сезон: 1 / Серии: 1-8 из 8 [2018 HDTVRip] bober100 Скачать
1 | 0
Наши сериалы [ 18.61 GB ] Sпарта / Сезон: 1 / Серии: 1-8 из 8 [2018 HDTV 1080i] bober100 Скачать
1 | 0
Наши сериалы [ 5.22 GB ] Sпарта / Серии: 1-8 из 8 [2018 SATRip-AVC] aleksan55 Скачать
1 | 0


Последний раз редактировалось: oleg8 (2018-07-19 21:58), всего редактировалось 8 раз(а)

28-11-2019 20:33  

Отключить всю рекламу на сайте

10-07-2018 15:03 Sпарта Скачать торрент  

oleg8, Название фильма указано не правильно Спарта правильно так Sпартаpb.wtf



10-07-2018 15:34 Sпарта Скачать торрент  

Sпарта /Спарта /-так на источнике, так- Sпарта в программе 1 канала.pb.wtf



12-07-2018 05:26 Sпарта Скачать торрент  

oleg8 писал(а):

Sпарта /Спарта /-так на источнике, так- Sпарта в программе 1 канала.

как его не обзови- "шляпа": участковый живет в школе- занимается расследованием)))
злой тихушник , аааа короче посмотреть можноpb.wtf



19-07-2018 20:45 Sпарта Скачать торрент  

Вроде неплохой актер, а сериальчик весьма посредственный - просмотрел до конца, ждал развязки интриги, но все свелось к одному- мир -дерьмо и люди не лучше. Прискорбно...pb.wtf



20-07-2018 06:27 Sпарта Скачать торрент  

Скучноват.Последняя серия ниче, начинает захватывать, но бац и конец.pb.wtf



    Дорогой пользователь! Огромная просьба, поблагодарите релизера, оцените раздачу и оставьте свои комментарий, если Вы скачали Sпарта через торрент бесплатно! Внесите свою лепту в развитие PiratBit!
    Комментировать посты могут только пользователи прошедшие не сложную регистрацию
    Показать сообщения:    

    Sпарта через торрент
    Скачать бесплатно Sпарта
    Sпарта скачать торрент
    Sпарта смотреть онлайн
    Cкачать фильм Sпарта бесплатно
    Sпарта скачать торрент в хорошем качестве
    Sпарта смотреть онлайн бесплатно в хорошем качестве


    Вы не можете начинать темы
    Вы не можете отвечать на сообщения
    Вы не можете редактировать свои сообщения
    Вы не можете удалять свои сообщения
    Вы не можете голосовать в опросах
    Вы не можете прикреплять файлы к сообщениям
    Вы можете скачивать файлы