Ссылка на приватное зеркало нашего сайта всего за 1$. Внимание количество ограничено!!!

2 сезон

iTunes

1 сезон

1

2 сезон

2 сезон

iTunes

1 сезон

RePack

30

Новинка

ВАЖНО

ИГРА 18+

pack

RePack

MK11
pack

Забери бонус

RePack

jed

!!Акция!!

Alien_Rage

RePack

fifa19

RePack

Assassins Creed: Odyssey

RePack

NEED FOR SPEED™ PAYBACK

4 сезон

9 сезон

Бесстыжие 9 сезон

Все сериалы

все сериалы на PB.wtf

RePack

FAR CRY 5
  

Голиаф / Goliath / Сезон: 2 / Серии 1-8 из 8 (Лоуренс Триллинг, Дэнни Гордон, Алик Сахаров) [2018, США, Драма, криминал, WEBRip 1080p] 2xMVO [NewStudio, BaibaKo] pb.wtf

Голиаф через торрент pb.wtf

Размер: 30 GB | Добавлен: 2 года 4 мес. назад | Торрент скачан:19 раз
Скачать  

09-07-2018 14:20 Голиаф Скачать торрент  

Голиаф / Goliath2 сезон

Год выпуска: 2018
Страна: США
Жанр: Драма, криминал
Продолжительность: 8 x ~ 00:55:00
Перевод: Профессиональный многоголосый
Субтитры: Русские (Full, Forced), английские (Forced, Full, SDH), арабские, китайские х2, немецкие, испанские х2, французские, хинди, индонезийские, итальянские, корейские, голландские, польские, португальские, турецкие
Режиссер: Лоуренс Триллинг, Дэнни Гордон, Алик Сахаров
В ролях:

Билли Боб Торнтон (Billy McBride), Таня Рэймонд (Brittany Gold), Нина Арианда (Patty Solis-Papagian), Диана Хоппер (Denise McBride), Джули Бристер (Marva Jefferson), Уильям Хёрт (Donald Cooperman), Ана де ла Регера (Marisol Silva), Мария Белло (Michelle McBride), Оливия Тирлби (Lucy Kittridge), Молли Паркер (Callie Senate), Марк Дюпласс (Tom Wyatt), Сара Уайнтер (Gina Larson)
Описание:
В руки опального адвоката, гоняющегося за машинами скорой помощи в поисках новых клиентов, попадает дело, которое может принести ему искупление или, по крайней мере, возможность отомстить фирме, вышвырнувшей его на улицу.
Рейтинг:

Качество: WEBRip 1080p (исх. Goliath.S02.1080p.AMZN.WEB.DDP5.1.x264-NTb)
Формат: MKV
Видео: MPEG-4 AVC, ~ 8174 Кбит/с, 1920x960, 23.976 кадр/с
Аудио #1: Русский / (AC3, 6 ch, 384 Кбит/с) / Профессиональный (многоголосый закадровый) | NewStudio
Аудио #2: Русский / (AC3, 6 ch, 640 Кбит/с) / Профессиональный (многоголосый закадровый) | BaibaKo
Аудио #3: Английский / (E-AC3, 6 ch, 640 Кбит/с) / Original
РЕЛИЗ БЕЗ РЕКЛАМЫ!
Озвучка: NewStudio, BaibaKo
Перевод: Юля Мейер, Александр Калинин, Булат Карабасов, Александра Иванова
01. Ла Мано / La Mano
02. Политика / Politics
03. Свежие цветы / Fresh Flowers
04. Алло / Alo
05. Кто такой Гэбриел / Who's Gabriel
06. Две золушки / Two Cinderellas
07. Зеленый змий / Diablo Verde
08. Язык за зубами / Tongue Tied
General
Unique ID : 253412988339581304285876996208716837786 (0xBEA590F6056C1F7190774B4E1742739A)
Complete name : I:\Goliath.S02E01.AMZN.WEBRip.1080p.2xRus.Eng.mkv
Format : Matroska
Format version : Version 4 / Version 2
File size : 3.40 GiB
Duration : 49 min 30 s
Overall bit rate : 9 844 kb/s
Encoded date : UTC 2018-06-23 17:41:50
Writing application : mkvmerge v8.3.0 ('Over the Horizon') 32bit
Writing library : libebml v1.3.1 + libmatroska v1.4.2
Attachments : poster.png

Video
ID : 1
Format : AVC
Format/Info : Advanced Video Codec
Format profile : High@L4.1
Format settings, CABAC : Yes
Format settings, ReFrames : 4 frames
Codec ID : V_MPEG4/ISO/AVC
Duration : 49 min 30 s
Bit rate : 8 174 kb/s
Width : 1 920 pixels
Height : 960 pixels
Display aspect ratio : 2.000
Frame rate mode : Constant
Frame rate : 23.976 (24000/1001) FPS
Color space : YUV
Chroma subsampling : 4:2:0
Bit depth : 8 bits
Scan type : Progressive
Bits/(Pixel*Frame) : 0.185
Stream size : 2.83 GiB (83%)
Writing library : x264 core 152 r2851kMod ba24899
Encoding settings : cabac=1 / ref=4 / deblock=1:-3:-3 / analyse=0x3:0x133 / me=umh / subme=10 / psy=1 / fade_compensate=0.00 / psy_rd=1.00:0.00 / mixed_ref=1 / me_range=48 / chroma_me=1 / trellis=2 / 8x8dct=1 / cqm=0 / deadzone=21,11 / fast_pskip=0 / chroma_qp_offset=-2 / threads=48 / lookahead_threads=7 / sliced_threads=0 / nr=0 / decimate=0 / interlaced=0 / bluray_compat=0 / constrained_intra=0 / bframes=8 / b_pyramid=2 / b_adapt=2 / b_bias=0 / direct=3 / weightb=1 / open_gop=0 / weightp=2 / keyint=250 / keyint_min=23 / scenecut=40 / intra_refresh=0 / rc=crf / mbtree=0 / crf=17.0000 / qcomp=0.60 / qpmin=0 / qpmax=69 / qpstep=4 / ip_ratio=1.30 / pb_ratio=1.20 / aq=3:0.70
Language : English
Default : Yes
Forced : No

Audio #1
ID : 2
Format : AC-3
Format/Info : Audio Coding 3
Format settings, Endianness : Big
Codec ID : A_AC3
Duration : 49 min 30 s
Bit rate mode : Constant
Bit rate : 384 kb/s
Channel(s) : 6 channels
Channel positions : Front: L C R, Side: L R, LFE
Sampling rate : 48.0 kHz
Frame rate : 31.250 FPS (1536 spf)
Bit depth : 16 bits
Compression mode : Lossy
Stream size : 136 MiB (4%)
Title : NewStudio
Language : Russian
Service kind : Complete Main
Default : Yes
Forced : No

Audio #2
ID : 3
Format : AC-3
Format/Info : Audio Coding 3
Format settings, Endianness : Big
Codec ID : A_AC3
Duration : 49 min 30 s
Bit rate mode : Constant
Bit rate : 640 kb/s
Channel(s) : 6 channels
Channel positions : Front: L C R, Side: L R, LFE
Sampling rate : 48.0 kHz
Frame rate : 31.250 FPS (1536 spf)
Bit depth : 16 bits
Compression mode : Lossy
Stream size : 227 MiB (7%)
Title : BaibaKo
Language : Russian
Service kind : Complete Main
Default : No
Forced : No

Audio #3
ID : 4
Format : E-AC-3
Format/Info : Enhanced Audio Coding 3
Format settings, Endianness : Big
Codec ID : A_EAC3
Duration : 49 min 30 s
Bit rate mode : Constant
Bit rate : 640 kb/s
Channel(s) : 6 channels
Channel positions : Front: L C R, Side: L R, LFE
Sampling rate : 48.0 kHz
Frame rate : 187.500 FPS (256 spf)
Compression mode : Lossy
Stream size : 227 MiB (7%)
Title : English
Language : English
Service kind : Complete Main
Default : No
Forced : No

Text #1
ID : 5
Format : ASS
Codec ID : S_TEXT/ASS
Codec ID/Info : Advanced Sub Station Alpha
Duration : 41 min 15 s
Bit rate : 1 b/s
Count of elements : 7
Compression mode : Lossless
Stream size : 411 Bytes (0%)
Title : Forced
Language : Russian
Default : Yes
Forced : Yes

Text #2
ID : 6
Format : UTF-8
Codec ID : S_TEXT/UTF8
Codec ID/Info : UTF-8 Plain Text
Duration : 10 s 0 ms
Bit rate : 108 b/s
Count of elements : 4
Stream size : 135 Bytes (0%)
Title : Forced
Language : English
Default : No
Forced : No

Text #3
ID : 7
Format : UTF-8
Codec ID : S_TEXT/UTF8
Codec ID/Info : UTF-8 Plain Text
Duration : 46 min 46 s
Bit rate : 77 b/s
Count of elements : 886
Stream size : 26.6 KiB (0%)
Title : English
Language : English
Default : No
Forced : No

Text #4
ID : 8
Format : UTF-8
Codec ID : S_TEXT/UTF8
Codec ID/Info : UTF-8 Plain Text
Duration : 46 min 46 s
Bit rate : 82 b/s
Count of elements : 925
Stream size : 28.2 KiB (0%)
Title : SDH
Language : English
Default : No
Forced : No

Text #5
ID : 9
Format : UTF-8
Codec ID : S_TEXT/UTF8
Codec ID/Info : UTF-8 Plain Text
Duration : 47 min 3 s
Bit rate : 105 b/s
Count of elements : 735
Stream size : 36.4 KiB (0%)
Title : Arabic
Language : Arabic
Default : No
Forced : No

Text #6
ID : 10
Format : UTF-8
Codec ID : S_TEXT/UTF8
Codec ID/Info : UTF-8 Plain Text
Duration : 47 min 3 s
Bit rate : 64 b/s
Count of elements : 735
Stream size : 22.1 KiB (0%)
Title : Chinese
Language : Chinese
Default : No
Forced : No

Text #7
ID : 11
Format : UTF-8
Codec ID : S_TEXT/UTF8
Codec ID/Info : UTF-8 Plain Text
Duration : 47 min 3 s
Bit rate : 64 b/s
Count of elements : 735
Stream size : 22.1 KiB (0%)
Title : Chinese
Language : Chinese
Default : No
Forced : No

Text #8
ID : 12
Format : UTF-8
Codec ID : S_TEXT/UTF8
Codec ID/Info : UTF-8 Plain Text
Duration : 49 min 7 s
Bit rate : 59 b/s
Count of elements : 644
Stream size : 21.5 KiB (0%)
Title : German
Language : German
Default : No
Forced : No

Text #9
ID : 13
Format : UTF-8
Codec ID : S_TEXT/UTF8
Codec ID/Info : UTF-8 Plain Text
Duration : 47 min 3 s
Bit rate : 70 b/s
Count of elements : 724
Stream size : 24.3 KiB (0%)
Title : Spanish
Language : Spanish
Default : No
Forced : No

Text #10
ID : 14
Format : UTF-8
Codec ID : S_TEXT/UTF8
Codec ID/Info : UTF-8 Plain Text
Duration : 47 min 3 s
Bit rate : 70 b/s
Count of elements : 724
Stream size : 24.3 KiB (0%)
Title : Spanish
Language : Spanish
Default : No
Forced : No

Text #11
ID : 15
Format : UTF-8
Codec ID : S_TEXT/UTF8
Codec ID/Info : UTF-8 Plain Text
Duration : 46 min 41 s
Bit rate : 72 b/s
Count of elements : 724
Stream size : 24.7 KiB (0%)
Title : French
Language : French
Default : No
Forced : No

Text #12
ID : 16
Format : UTF-8
Codec ID : S_TEXT/UTF8
Codec ID/Info : UTF-8 Plain Text
Duration : 47 min 3 s
Bit rate : 194 b/s
Count of elements : 735
Stream size : 67.2 KiB (0%)
Title : Hindi
Language : Hindi
Default : No
Forced : No

Text #13
ID : 17
Format : UTF-8
Codec ID : S_TEXT/UTF8
Codec ID/Info : UTF-8 Plain Text
Duration : 47 min 3 s
Bit rate : 68 b/s
Count of elements : 727
Stream size : 23.5 KiB (0%)
Title : Indonesian
Language : Indonesian
Default : No
Forced : No

Text #14
ID : 18
Format : UTF-8
Codec ID : S_TEXT/UTF8
Codec ID/Info : UTF-8 Plain Text
Duration : 47 min 3 s
Bit rate : 75 b/s
Count of elements : 728
Stream size : 26.1 KiB (0%)
Title : Italian
Language : Italian
Default : No
Forced : No

Text #15
ID : 19
Format : UTF-8
Codec ID : S_TEXT/UTF8
Codec ID/Info : UTF-8 Plain Text
Duration : 47 min 3 s
Bit rate : 72 b/s
Count of elements : 734
Stream size : 25.0 KiB (0%)
Title : Korean
Language : Korean
Default : No
Forced : No

Text #16
ID : 20
Format : UTF-8
Codec ID : S_TEXT/UTF8
Codec ID/Info : UTF-8 Plain Text
Duration : 47 min 3 s
Bit rate : 61 b/s
Count of elements : 686
Stream size : 21.2 KiB (0%)
Title : Dutch
Language : Dutch
Default : No
Forced : No

Text #17
ID : 21
Format : UTF-8
Codec ID : S_TEXT/UTF8
Codec ID/Info : UTF-8 Plain Text
Duration : 47 min 3 s
Bit rate : 65 b/s
Count of elements : 716
Stream size : 22.6 KiB (0%)
Title : Polish
Language : Polish
Default : No
Forced : No

Text #18
ID : 22
Format : UTF-8
Codec ID : S_TEXT/UTF8
Codec ID/Info : UTF-8 Plain Text
Duration : 47 min 3 s
Bit rate : 69 b/s
Count of elements : 729
Stream size : 23.8 KiB (0%)
Title : Portuguese
Language : Portuguese
Default : No
Forced : No

Text #19
ID : 23
Format : UTF-8
Codec ID : S_TEXT/UTF8
Codec ID/Info : UTF-8 Plain Text
Duration : 47 min 3 s
Bit rate : 132 b/s
Count of elements : 735
Stream size : 45.8 KiB (0%)
Title : Russian
Language : Russian
Default : No
Forced : No

Text #20
ID : 24
Format : UTF-8
Codec ID : S_TEXT/UTF8
Codec ID/Info : UTF-8 Plain Text
Duration : 47 min 3 s
Bit rate : 74 b/s
Count of elements : 729
Stream size : 25.5 KiB (0%)
Title : Turkish
Language : Turkish
Default : No
Forced : No

Menu
00:00:00.000 : en:Amazon Original
00:00:05.000 : en:Previously On
00:03:39.000 : en:DEA agents break into a gang's house
00:07:16.000 : en:Oscar walks Billy home
00:12:33.000 : en:Brittany apologizes to Billy
00:16:22.000 : en:Oscar tells the truth about his younger son
00:19:15.000 : en:Billy visits Julio in prison
00:21:46.000 : en:Denise is back from London
00:26:35.000 : en:Marisol meets Billy and asks about Julio's case
00:30:20.000 : en:Detective Roman walks Billy through the murder case
00:35:28.000 : en:Roman shares his concerns about Julio's case
00:39:37.000 : en:Tom asks Marisol to distance from Julio
00:42:26.000 : en:Miguel reports a call from Wyatt
00:44:05.000 : en:Marva and Billy help Oscar to get ready for court
00:46:59.000 : en:End Credits
pb.wtf



Скачать Голиаф через торрент https://d.radikal.ru/d35/1807/a9/a78f199cd92d.png Скачать фильм Голиаф через торрент бесплантно в хорошем качестве Описание: В руки опального адвоката, гоняющегося за машинами скорой помощи в поисках новых клиентов, попадает дело, которое может принести ... 10 10 1
Торрент: Зарегистрирован [2018-07-09 14:20] · скачан: 19 раз
Статус: √ проверено
Размер: 30 GB
Как cкачать? Как скачать Голиаф через торрент | qTorrent

% Раздел Тема Автор DL S | L
Зарубежные сериалы [ 62.98 GB ] Голиаф / Goliath / Сезон: 2 / Серии 1-8 из 8 [2018 UHD WEBRip 2160p] 2xMVO [NewStudio BaibaKo] sheker187 Скачать
1 | 0
Зарубежные сериалы [ 4.75 GB ] Голиаф / Goliath / Сезон: 2 / Серии 1-8 из 8 [2018 WEBRip] MVO [BaibaKo] GEKADOL Скачать
1 | 0

28-11-2019 20:33  

Отключить всю рекламу на сайте

09-07-2018 14:51 Голиаф Скачать торрент  

1 сезон в разы лучше был а тут приплели какого то шизика канибала лектора финал не порадовал тожеpb.wtf



    Дорогой пользователь! Огромная просьба, поблагодарите релизера, оцените раздачу и оставьте свои комментарий, если Вы скачали Голиаф через торрент бесплатно! Внесите свою лепту в развитие PiratBit!
    Комментировать посты могут только пользователи прошедшие не сложную регистрацию
    Показать сообщения:    

    Голиаф через торрент
    Скачать бесплатно Голиаф
    Голиаф скачать торрент
    Голиаф смотреть онлайн
    Cкачать фильм Голиаф бесплатно
    Голиаф скачать торрент в хорошем качестве
    Голиаф смотреть онлайн бесплатно в хорошем качестве


    Вы не можете начинать темы
    Вы не можете отвечать на сообщения
    Вы не можете редактировать свои сообщения
    Вы не можете удалять свои сообщения
    Вы не можете голосовать в опросах
    Вы не можете прикреплять файлы к сообщениям
    Вы можете скачивать файлы