Ссылка на приватное зеркало нашего сайта всего за 1$. Внимание количество ограничено!!!

2 сезон

iTunes

1 сезон

1

iTunes

iTunes

iTunes

1 сезон

RePack

30

ИГРА 18+

pack

ВАЖНО

!!Акция!!

Alien_RageХит недели

RePack

MK11
pack

Забери бонус

RePack

jed

!!Акция!!

Alien_Rage

RePack

fifa19

RePack

Assassins Creed: Odyssey

RePack

NEED FOR SPEED™ PAYBACK

4 сезон

9 сезон

Бесстыжие 9 сезон

Все сериалы

все сериалы на PB.wtf

RePack

FAR CRY 5
  

Sпарта / Сезон: 1 / Серии: 1-8 из 8 (Егор Баранов) [2018, Драма, детектив, HDTV 1080i] pb.wtf

Sпарта через торрент pb.wtf

Размер: 18.61 GB | Добавлен: 2 года 3 мес. назад | Торрент скачан:88 раз
Скачать  

09-07-2018 18:40 Sпарта Скачать торрент  

Sпарта
Год выпуска: 2018
Страна: Россия
Жанр: Драма, детектив
Продолжительность: ~ 00:53:00
Субтитры: отсутствуют

Режиссер: Егор Баранов



В ролях:

Александр Петров (III), Артём Ткаченко, Алиса Лозовская, Валерия Шкирандо, Олег Гаас, Яна Енжаева, Оксана Базилевич, Ольга Сутулова, Роман Агеев, Михаил Грубов, Филипп Горенштейн, Ян Гахарманов, Юлия Марченко, Марина Калецкая, Мария Смольникова, Алла Еминцева, Ольга Виниченко, Марина Даминева, Ольга Павлюкова

Описание:

Безобидной лжи не бывает. Даже самая потаенная мысль рано или поздно пересекает границы души и оказывается в реальности настоящего времени. Представьте, что такая реальность материальна, она действительно существует, и ваши самые безжалостные фантазии находят в ней воплощение. Эта история о человеке, для которого Влacть, вседозволенность, безнаказанность слились воедино «Sпарта» — это игра без правил, в которой виртуальное становится реальным.

Качество: HDTV 1080i
Формат: MPEG-TS

Видео: AVC, ~ 5000 Кбит/с, 1920x1080
Аудио#1: Русский (AC3, 6 ch, 384 Кбит/с),
Аудио#2: Русский (MP2, 2 ch, 192 Кбит/с)
скриншот  скриншот  скриншот  скриншот  

Общее
Идентификатор : 1 (0x1)
Полное имя : D:\Sпарта.HDTV(1080i).GeneralFilm\01.Sпарта.HDTV(1080i).GeneralFilm.ts
Формат : MPEG-TS
Размер файла : 2,13 Гбайт
Продолжительность : 53 м. 18 с.
Режим общего битрейта : Переменный
Общий поток : 5715 Кбит/сек

Видео
Идентификатор : 1904 (0x770)
Идентификатор меню : 80 (0x50)
Формат : AVC
Формат/Информация : Advanced Video Codec
Профиль формата : High@L4
Параметр CABAC формата : Да
Параметр RefFrames формата : 3 кадра
Идентификатор кодека : 27
Продолжительность : 53 м. 18 с.
Битрейт : 4851 Кбит/сек
Ширина : 1920 пикселей
Высота : 1080 пикселей
Соотношение сторон : 16:9
Частота кадров : 25,000 кадров/сек
Стандарт вещания : Component
Цветовое пространство : YUV
Субдискретизация насыщенности : 4:2:0
Битовая глубина : 8 бит
Тип развёртки : Чересстрочная
Метод сохранения типа развёртки : Раздельные поля
Порядок развёртки : Верхнее поле первое
Бит/(Пиксели*Кадры) : 0.094
Размер потока : 1,81 Гбайт (85%)
Цветовой диапазон : Limited
Основные цвета : BT.709
Характеристики трансфера : BT.709
Коэффициенты матрицы : BT.709

Аудио #1
Идентификатор : 2904 (0xB58)
Идентификатор меню : 80 (0x50)
Формат : AC-3
Формат/Информация : Audio Coding 3
Расширение режима : CM (complete main)
Параметр Endianness формата : Big
Идентификатор кодека : 6
Продолжительность : 53 м. 18 с.
Вид битрейта : Постоянный
Битрейт : 384 Кбит/сек
Каналы : 6 каналов
Расположение каналов : Front: L C R, Side: L R, LFE
Частота : 48,0 КГц
Частота кадров : 31,250 кадров/сек (1536 spf)
Метод сжатия : С потерями
Задержка видео : -120 мс.
Размер потока : 146 Мбайт (7%)
Язык : Russian

Аудио #2
Идентификатор : 2905 (0xB59)
Идентификатор меню : 80 (0x50)
Формат : MPEG Audio
Версия формата : Version 1
Профиль формата : Layer 2
Идентификатор кодека : 3
Продолжительность : 53 м. 18 с.
Вид битрейта : Постоянный
Битрейт : 192 Кбит/сек
Каналы : 2 канала
Частота : 48,0 КГц
Метод сжатия : С потерями
Задержка видео : -120 мс.
Размер потока : 73,2 Мбайт (3%)
Язык : Russian

Внимание! Раздача ведётся путём добавления новых серий; при каждом добавлении создаётся новый торрент. Чтобы начать докачку новой серии, пользователям необходимо сделать следующее:
(1) остановить скачивание,
(2) удалить старый торрент у себя из клиента (старые серии удалять не надо),
(3) скачать новый торрент и запустить его у себя в клиенте вместо старого, при этом указать клиенту путь в старую папку куда и должно происходить скачивание новых серий.
Ваш клиент при этом должен произвести хеширование (проверку) старой папки (если не производит сам - помогите ему сделать это), и будет докачивать только те серии которых у вас ещё нет. Старые серии при этом не удаляются, а продолжают раздаваться!
Eсли вы уже удалили старые серии, то предотвратить повторную закачку старых серий можно, отжав галочку в соответствующих местах при запуске нового торрента. По возможности, желательно не удалять старые серии как можно дольше чтобы релизёр не столько продолжал раздавать старые серии, а смог сконцентрироваться на новых.
pb.wtf



Скачать Sпарта через торрент http://a.radikal.ru/a03/1807/49/c9f28d29c5d7.jpg Скачать фильм Sпарта через торрент бесплантно в хорошем качестве Описание: Безобидной лжи не бывает. Даже самая потаенная мысль рано или поздно пересекает границы души и оказывается в реальности ... 10 10 12
Торрент: Зарегистрирован [2018-07-20 06:54] · скачан: 88 раз
Статус: √ проверено
Размер: 18.61 GB
Как cкачать? Как скачать Sпарта через торрент | qTorrent

% Раздел Тема Автор DL S | L
Наши сериалы [ 10.8 GB ] Sпарта / Сезон: 1 / Серии: 1-8 из 8 [2018 HDTVRip 720p] bober100 Скачать
1 | 0
Наши сериалы [ 6.42 GB ] Sпарта / Сезон: 1 / Серии: 1-8 из 8 [2018 HDTVRip-AVC] bober100 Скачать
1 | 0
Наши сериалы [ 5.85 GB ] Sпарта / Сезон: 1 / Серии: 1-8 из 8 [2018 HDTVRip] bober100 Скачать
1 | 0

28-11-2019 20:33  

Отключить всю рекламу на сайте

    Дорогой пользователь! Огромная просьба, поблагодарите релизера, оцените раздачу и оставьте свои комментарий, если Вы скачали Sпарта через торрент бесплатно! Внесите свою лепту в развитие PiratBit!
    Комментировать посты могут только пользователи прошедшие не сложную регистрацию
    Показать сообщения:    

    Sпарта через торрент
    Скачать бесплатно Sпарта
    Sпарта скачать торрент
    Sпарта смотреть онлайн
    Cкачать фильм Sпарта бесплатно
    Sпарта скачать торрент в хорошем качестве
    Sпарта смотреть онлайн бесплатно в хорошем качестве


    Вы не можете начинать темы
    Вы не можете отвечать на сообщения
    Вы не можете редактировать свои сообщения
    Вы не можете удалять свои сообщения
    Вы не можете голосовать в опросах
    Вы не можете прикреплять файлы к сообщениям
    Вы можете скачивать файлы