Всегда рабочее зеркало просто перед .vidak.icu напиши любое слово или цифру, Пример http://21e.vidak.icu

>

7.4

iTunes

7.4

2 сезон

9.4

1 сезон

1

7.4

2 сезон

7.2

iTunes

6.0

MVO

13

6.1

iTunes

8.3

Пиратка

30

ULTIMATE

pack

9.9

Лицензия

ВАЖНО

ИГРА 18+

pack

7.3

RePack

MK11

7.7

RePack

jed

7.8

RePack

fifa19

8.5

RePack

RDR2

RePack

NEED FOR SPEED™ PAYBACK

1 сезон

9 сезон

Бесстыжие 9 сезон

Все сериалы

все сериалы на PB.wtf

RePack

FAR CRY 5

Anonymous, доброй ночи, мы катастрофически не успеваем собрать деньги на оплату серверов, помогите нам пожалуйста 5,10,15р., для нас важна любая помощь . В качестве благодарности мы отключим Вам всю рекламу на сайте (укажите свой ник в строку Ваше имя)!

×
  
Magnet ссылка

Женщины мафии / Kobiety mafii (Патрик Вега) [2018, боевик, драма, криминал, BDRip] AVO [Е.Гаевский] pb.wtf

Женщины мафии через торрент pb.wtf

Размер: 1.46 GB | Добавлен: 3 года 6 мес. назад | Торрент скачан:101 раз
Смотреть онлайн Женщины мафии | Скачать    Ребята, помогите собрать деньги на оплату серверов!!!

09-07-2018 18:47 Женщины мафии Скачать торрент  

Женщины мафии / Kobiety mafii

Год выпуска: 2018
Страна: Польша
Жанр: боевик, драма, криминал

Продолжительность: 02:18:00
Перевод: Авторский одноголосый [Е. Гаевский]
Примечание: В фильме присутствуют сцены с обнаженной натурой и ненормативная лексика!
Режиссер: Патрик Вега
В ролях:

Ольга Болондзь («Bela»), Александра Поплавска («Siekiera»), Катажина Варнке (Spuchnieta Anka), Julia Wieniawa-Narkiewicz («Futro»), Януш Хабёр (Adam), Sebastian Fabijanski («Cieniu»), Filip Guzla (Kacper), Богуслав Линда («Padrino»), Оляф Любашенко (Commander), Томаш Освецинский («Milimetr»), Szymon Radzimierski (Son of «Cieniu»), Петр Страмовски («Zywy»)
Описание:
После удачно проведённого задержания 20 самых опасных преступников Варшавского района Мокотув, Бела уволена из полиции за самоуправство. Её приглашают на службу в Агентство Внутренней Безопасности. Она должна пройти подготовку с кураторами из ФБР и внедриться в банду международного торговца наркотиками по прозвищу Падрино.
Рейтинг:
rating
Качество: BDRip
Формат: AVI
Видео: XviD, 720x304 (2.35:1), 1254 kbps, 24 fps, 0,239 bpp
Аудио: AC3 / 2.0 / 48 kHz / 192 kbps /

General
Complete name : F:\Women of Mafia 2018 BDRip.avi
Format : AVI
Format/Info : Audio Video Interleave
File size : 1.46 GiB
Duration : 2 h 18 min
Overall bit rate : 1 515 kb/s
Writing application : VirtualDubMod 1.5.10.2 (build 2540/release)
Writing library : VirtualDubMod build 2540/release

Video
ID : 0
Format : MPEG-4 Visual
Format profile : Advanced Simple@L5
Format settings, BVOP : 1
Format settings, QPel : No
Format settings, GMC : No warppoints
Format settings, Matrix : Custom
Codec ID : XVID
Codec ID/Hint : XviD
Duration : 2 h 18 min
Bit rate : 1 255 kb/s
Width : 720 pixels
Height : 304 pixels
Display aspect ratio : 2.35:1
Frame rate : 24.000 FPS
Color space : YUV
Chroma subsampling : 4:2:0
Bit depth : 8 bits
Scan type : Progressive
Compression mode : Lossy
Bits/(Pixel*Frame) : 0.239
Stream size : 1.21 GiB (83%)
Writing library : XviD 73

Audio
ID : 1
Format : AC-3
Format/Info : Audio Coding 3
Mode extension : CM (complete main)
Format settings, Endianness : Big
Codec ID : 2000
Duration : 2 h 18 min
Bit rate mode : Constant
Bit rate : 192 kb/s
Channel(s) : 2 channels
Channel positions : Front: L R
Sampling rate : 48.0 kHz
Frame rate : 31.250 FPS (1536 spf)
Compression mode : Lossy
Stream size : 190 MiB (13%)
Alignment : Split accross interleaves
pb.wtf



Скачать Женщины мафии через торрент http://i105.fastpic.ru/big/2018/0709/8e/2b13c4a8a61225b5d4241e8716283e8e.jpg Скачать, смотреть онлайн Женщины мафии бесплантно в хорошем качестве Описание: После удачно проведённого задержания 20 самых опасных преступников Варшавского района Мокотув, Бела уволена из полиции за ... 10 10 3
Торрент: Зарегистрирован [2018-07-09 18:47] · скачан: 101 раз
Статус: √ проверено
Размер: 1.46 GB
Как cкачать? Как скачать Женщины мафии через торрент | UTorrent

% Раздел Тема Автор DL S | L
Фильмы с авторской озвучкой [ 2.18 GB ] Женщины мафии 2 / Kobiety mafii 2 [2019 BDRip] [VO] killermax2013 Скачать
1 | 0
Фильмы с авторской озвучкой [ 2.99 GB ] Женщины мафии / Kobiety mafii [2018 BDRip-AVC] AVO [Е.Гаевский] - ExKinoRay Enigma2010 Скачать
1 | 0
Фильмы с авторской озвучкой [ 9.78 GB ] Женщины мафии / Kobiety mafii [2018 BDRip 1080p] AVO [Е.Гаевский] bober100 Скачать
1 | 0

28-11-2019 20:33  

Отключить всю рекламу на сайте

10-07-2018 13:19 Женщины мафии Скачать торрент  

чет нагородили , няня варщик, супер коп- на все руки мастер- и стриптиз на пилоне может залабать и психотерапевтом подработать)))
в целом получилось не плохо!pb.wtf



    Дорогой пользователь! Огромная просьба, поблагодарите релизера, оцените раздачу и оставьте свои комментарий, если Вы скачали Женщины мафии через торрент бесплатно!
    Комментировать посты могут только пользователи прошедшие не сложную регистрацию
    Показать сообщения:    

    Женщины мафии через торрент
    Скачать бесплатно Женщины мафии
    Женщины мафии скачать торрент
    Женщины мафии смотреть онлайн
    Cкачать фильм Женщины мафии бесплатно
    Женщины мафии скачать торрент в хорошем качестве
    Женщины мафии смотреть онлайн бесплатно в хорошем качестве


    Вы не можете начинать темы
    Вы не можете отвечать на сообщения
    Вы не можете редактировать свои сообщения
    Вы не можете удалять свои сообщения
    Вы не можете голосовать в опросах
    Вы не можете прикреплять файлы к сообщениям
    Вы можете скачивать файлы