Ссылка на приватное зеркало нашего сайта всего за 1$. Внимание количество ограничено!!!

2 сезон

iTunes

1 сезон

1

2 сезон

2 сезон

iTunes

1 сезон

RePack

30

Новинка

ВАЖНО

ИГРА 18+

pack

RePack

MK11
pack

Забери бонус

RePack

jed

!!Акция!!

Alien_Rage

RePack

fifa19

RePack

Assassins Creed: Odyssey

RePack

NEED FOR SPEED™ PAYBACK

4 сезон

9 сезон

Бесстыжие 9 сезон

Все сериалы

все сериалы на PB.wtf

RePack

FAR CRY 5
  

Люди / Humans / Сезон: 3 / Серии: 1-8 из 8 (Льюис Арнольд, Сэмюэл Донован, Чина Му-Ен) [2018, Фантастика, драма, HDTVRip] MVO [Jaskier] pb.wtf

Люди через торрент pb.wtf

Размер: 4.41 GB | Добавлен: 2 года 4 мес. назад | Торрент скачан:8 раз
Скачать  

10-07-2018 01:55 Люди Скачать торрент  

Люди / Humans
Год выпуска: 2018
Страна: США, Ирландия, Великобритания
Жанр: Фантастика, драма
Продолжительность: ~00:47:00
Перевод: Профессиональный (многоголосый) | Jaskier
Субтитры: отсутствуют

Режиссер: Льюис Арнольд, Сэмюэл Донован, Чина Му-Ен

rating

В ролях:

Джемма Чан, Джек Дерджс, Ребекка Фронт, Софи Гудинг, Том Гудман-Хилл, Уильям Хёрт, Колин Морган, Кэтрин Паркинсон, Алисия Вудхаус

Описание:

Действие сериала разворачивается в параллельном мире, где чрезвычайную популярность приобрели новые гаджеты — высокотехнологичные роботы-слуги, которые внешне пугающе похожи на людей. Одного такого «помощника по хозяйству» приобретает живущая в пригороде семья. Вскоре они осознают, что совместная с машиной жизнь повлечет за собой жуткие последствия. Драма является адаптацией шведского сериала "Реальные люди".

Качество: HDTVRip
Формат: AVI

Видео: 720x400 , 25,000 fps, XviD ~1500 kbps
Аудио RUS: MP3, 48.0 KHz, 2 ch, 128 kbps
Аудио ENG: MP3, 48.0 KHz, 2 ch, 128 kbps
скриншот  скриншот  скриншот  

Общее
Полное имя : D:\Humans. Season 3 (HDTV l 400p l Jaskier)\Humans.S03E01.400p.Jaskier.avi
Формат : AVI
Формат/Информация : Audio Video Interleave
Размер файла : 558 Мбайт
Продолжительность : 46 м. 40 с.
Общий поток : 1670 Кбит/сек
Программа кодирования : VirtualDubMod 1.5.10.3 | www.virtualdub-fr.org || (build 2550/release)
Библиотека кодирования : VirtualDubMod build 2550/release

Видео
Идентификатор : 0
Формат : MPEG-4 Visual
Профиль формата : Advanced Simple@L5
Параметр BVOP формата : 2
Параметр QPel формата : Нет
Параметр GMC формата : Без точки перехода
Параметр матрицы формата : Выборочная
Идентификатор кодека : XVID
Идентификатор кодека/Подсказка : XviD
Продолжительность : 46 м. 40 с.
Битрейт : 1400 Кбит/сек
Ширина : 720 пикселей
Высота : 400 пикселей
Соотношение сторон : 16:9
Частота кадров : 25,000 кадров/сек
Цветовое пространство : YUV
Субдискретизация насыщенности : 4:2:0
Битовая глубина : 8 бит
Тип развёртки : Прогрессивная
Метод сжатия : С потерями
Бит/(Пиксели*Кадры) : 0.194
Размер потока : 467 Мбайт (84%)
Библиотека кодирования : XviD 73

Аудио #1
Идентификатор : 1
Формат : MPEG Audio
Версия формата : Version 1
Профиль формата : Layer 3
Режим : Joint stereo
Расширение режима : MS Stereo
Идентификатор кодека : 55
Идентификатор кодека/Подсказка : MP3
Продолжительность : 46 м. 40 с.
Вид битрейта : Постоянный
Битрейт : 128 Кбит/сек
Каналы : 2 канала
Частота : 48,0 КГц
Метод сжатия : С потерями
Размер потока : 42,7 Мбайт (8%)
Выравнивание : Соединение по промежуткам
Продолжительность промежутка : 40 мс. (1,00 видеокадр)
Время предзагрузки промежутка : 504 мс.

Аудио #2
Идентификатор : 2
Формат : MPEG Audio
Версия формата : Version 1
Профиль формата : Layer 3
Режим : Joint stereo
Расширение режима : MS Stereo
Идентификатор кодека : 55
Идентификатор кодека/Подсказка : MP3
Продолжительность : 46 м. 40 с.
Вид битрейта : Постоянный
Битрейт : 128 Кбит/сек
Каналы : 2 канала
Частота : 48,0 КГц
Метод сжатия : С потерями
Размер потока : 42,7 Мбайт (8%)
Выравнивание : Соединение по промежуткам
Продолжительность промежутка : 40 мс. (1,00 видеокадр)
Время предзагрузки промежутка : 504 мс.

pb.wtf



Скачать Люди через торрент http://i105.fastpic.ru/big/2018/0521/34/199e1f3d858ad4090cc9aa04b5d37f34.png Скачать фильм Люди через торрент бесплантно в хорошем качестве Описание: Действие сериала разворачивается в параллельном мире, где чрезвычайную популярность приобрели новые гаджеты — высокотехнологичные ... 10 10 2
Торрент: Зарегистрирован [2018-07-10 01:55] · скачан: 8 раз
Статус: √ проверено
Размер: 4.41 GB
Как cкачать? Как скачать Люди через торрент | qTorrent

% Раздел Тема Автор DL S | L
Зарубежные сериалы [ 6.08 GB ] Люди / Humans / Сезон: 3 / Серии: 1-8 из 8 [2018 HDTVRip 720p] MVO [Jaskier] bober100 Скачать
1 | 0
Зарубежные сериалы [ 24.42 GB ] Люди / Humans / Сезон: 3 / Серии: 1-8 из 8 [2018 HDTV 1080p] MVO [Lostfilm] bober100 Скачать
1 | 0
Зарубежные сериалы [ 10.8 GB ] Люди / Humans / Сезон: 3 / Серии: 1-8 из 8 [2018 HDTVRip 720p] MVO [Profix Media] bober100 Скачать
1 | 0
Зарубежные сериалы [ 4.7 GB ] Люди / Humans / Сезон: 3 / Серии: 1-8 из 8 [2018 HDTVRip] MVO [Lostfilm] bober100 Скачать
1 | 0
Зарубежные сериалы [ 16.23 GB ] Люди / Humans / Сезон: 3 / Серии: 1-8 из 8 [2018 HDTVRip 1080p] MVO [Profix Media] bober100 Скачать
1 | 0
Зарубежные сериалы [ 3.71 GB ] Люди / Humans / Сезон: 3 / Серии: 1-8 из 8 [2018 HDTVRip] MVO [Profix Media] bober100 Скачать
1 | 0

28-11-2019 20:33  

Отключить всю рекламу на сайте

    Дорогой пользователь! Огромная просьба, поблагодарите релизера, оцените раздачу и оставьте свои комментарий, если Вы скачали Люди через торрент бесплатно! Внесите свою лепту в развитие PiratBit!
    Комментировать посты могут только пользователи прошедшие не сложную регистрацию
    Показать сообщения:    

    Люди через торрент
    Скачать бесплатно Люди
    Люди скачать торрент
    Люди смотреть онлайн
    Cкачать фильм Люди бесплатно
    Люди скачать торрент в хорошем качестве
    Люди смотреть онлайн бесплатно в хорошем качестве


    Вы не можете начинать темы
    Вы не можете отвечать на сообщения
    Вы не можете редактировать свои сообщения
    Вы не можете удалять свои сообщения
    Вы не можете голосовать в опросах
    Вы не можете прикреплять файлы к сообщениям
    Вы можете скачивать файлы