Ссылка на приватное зеркало нашего сайта всего за 1$. Внимание количество ограничено!!!

2 сезон

iTunes

1 сезон

1

2 сезон

2 сезон

iTunes

1 сезон

RePack

30

Ultimate

ВАЖНО

ИГРА 18+

pack

RePack

MK11
pack

Забери бонус

RePack

jed

!!Акция!!

Alien_Rage

RePack

fifa19

RePack

Assassins Creed: Odyssey

RePack

NEED FOR SPEED™ PAYBACK

4 сезон

9 сезон

Бесстыжие 9 сезон

Все сериалы

все сериалы на PB.wtf

RePack

FAR CRY 5
  

Блеск / GLOW / Сезон: 2 / Серии: 1-10 из 10 (Кейт Дэннис, Тодд Фьельстед, Тристрам Шапиро) [2018, Драма, комедия, спорт, WEBRip] MVO [Jaskier] pb.wtf

Блеск через торрент pb.wtf

Размер: 4.11 GB | Добавлен: 2 года 4 мес. назад | Торрент скачан:9 раз
Скачать  

10-07-2018 05:59 Блеск Скачать торрент  

Блеск / GLOW
Информация о фильме:

Год выхода: 2018
Название: Блеск
Оригинальное: GLOW
Страна: США
Жанр: Драма, комедия, спорт
Продолжительность: ~ 00:37:00 серия
Перевод: Профессиональный (многоголосый) | Jaskier
Субтитры: отсутствуют

Режиссер: Кейт Дэннис, Тодд Фьельстед, Тристрам Шапиро

rating

В ролях:

Эллен Вонг, Элисон Бри, Ким Гейтвуд, Бетти Джилпин, Ребекка Джонсон, Сунита Мани, Сидель Грэйнджер, Гэйл Ранкин и др.

Описание:

История безработной актрисы из Лос-Анджелеса по имени Рут, которая в отчаянной попытке самореализации решает сняться в сериале о женщинах-рестлерах и оказывается в мире пышных причёсок, блеска и спандекса.



Информация о файле:

Качество: WEBRip
Формат: AVI

Видео: ~ 1450 kbps, 704x352
Аудио#1 RU: MP3, 2 ch, 128 kbps
Аудио#2 EN: MP3, 2 ch, 128 kbps
скриншот  скриншот  скриншот  

Общее
Полное имя : D:\GLOW. Season 2 (WEBRip l 400p l Jaskier)\GLOW.S02E01.WEBRip.Rus.Eng.Jaskier.avi
Формат : AVI
Формат/Информация : Audio Video Interleave
Размер файла : 401 Мбайт
Продолжительность : 33 м. 30 с.
Общий поток : 1672 Кбит/сек
Программа кодирования : VirtualDubMod 1.5.10.3 | www.virtualdub-fr.org || (build 2550/release)
Библиотека кодирования : VirtualDubMod build 2550/release

Видео
Идентификатор : 0
Формат : MPEG-4 Visual
Профиль формата : Advanced Simple@L5
Параметр BVOP формата : 1
Параметр QPel формата : Нет
Параметр GMC формата : Без точки перехода
Параметр матрицы формата : Выборочная
Идентификатор кодека : XVID
Идентификатор кодека/Подсказка : XviD
Продолжительность : 33 м. 30 с.
Битрейт : 1402 Кбит/сек
Ширина : 704 пикселя
Высота : 352 пикселя
Соотношение сторон : 2,000
Частота кадров : 23,976 (23976/1000) кадра/сек
Цветовое пространство : YUV
Субдискретизация насыщенности : 4:2:0
Битовая глубина : 8 бит
Тип развёртки : Прогрессивная
Метод сжатия : С потерями
Бит/(Пиксели*Кадры) : 0.236
Размер потока : 336 Мбайт (84%)
Библиотека кодирования : XviD 73

Аудио #1
Идентификатор : 1
Формат : MPEG Audio
Версия формата : Version 1
Профиль формата : Layer 3
Режим : Joint stereo
Расширение режима : MS Stereo
Идентификатор кодека : 55
Идентификатор кодека/Подсказка : MP3
Продолжительность : 33 м. 29 с.
Вид битрейта : Постоянный
Битрейт : 128 Кбит/сек
Каналы : 2 канала
Частота : 48,0 КГц
Метод сжатия : С потерями
Размер потока : 30,7 Мбайт (8%)
Выравнивание : Соединение по промежуткам
Продолжительность промежутка : 42 мс. (1,00 видеокадр)
Время предзагрузки промежутка : 504 мс.

Аудио #2
Идентификатор : 2
Формат : MPEG Audio
Версия формата : Version 1
Профиль формата : Layer 3
Режим : Joint stereo
Расширение режима : MS Stereo
Идентификатор кодека : 55
Идентификатор кодека/Подсказка : MP3
Продолжительность : 33 м. 30 с.
Вид битрейта : Постоянный
Битрейт : 128 Кбит/сек
Каналы : 2 канала
Частота : 48,0 КГц
Метод сжатия : С потерями
Размер потока : 30,7 Мбайт (8%)
Выравнивание : Соединение по промежуткам
Продолжительность промежутка : 42 мс. (1,00 видеокадр)
Время предзагрузки промежутка : 504 мс.

pb.wtf



Скачать Блеск через торрент https://img11.lostpic.net/2018/07/10/f15570208861880bb9237623f0746a85.png Скачать фильм Блеск через торрент бесплантно в хорошем качестве Описание: История безработной актрисы из Лос-Анджелеса по имени Рут, которая в отчаянной попытке самореализации решает сняться в сериале о ... 10 10 2
Торрент: Зарегистрирован [2018-07-10 05:59] · скачан: 9 раз
Статус: √ проверено
Размер: 4.11 GB
Как cкачать? Как скачать Блеск через торрент | qTorrent

% Раздел Тема Автор DL S | L
Зарубежные сериалы [ 32.99 GB ] Блеск / GLOW / Сезон: 2 / Серии: 1-10 из 10 [2018 WEBRip 1080p] MVO [AMS] bober100 Скачать
1 | 0
Зарубежные сериалы [ 20.9 GB ] Блеск / GLOW / Сезон: 2 / Серии: 1-10 из 10 [2018 WEBRip 720p] MVO [Jaskier] bober100 Скачать
1 | 0

28-11-2019 20:33  

Отключить всю рекламу на сайте

    Дорогой пользователь! Огромная просьба, поблагодарите релизера, оцените раздачу и оставьте свои комментарий, если Вы скачали Блеск через торрент бесплатно! Внесите свою лепту в развитие PiratBit!
    Комментировать посты могут только пользователи прошедшие не сложную регистрацию
    Показать сообщения:    

    Блеск через торрент
    Скачать бесплатно Блеск
    Блеск скачать торрент
    Блеск смотреть онлайн
    Cкачать фильм Блеск бесплатно
    Блеск скачать торрент в хорошем качестве
    Блеск смотреть онлайн бесплатно в хорошем качестве


    Вы не можете начинать темы
    Вы не можете отвечать на сообщения
    Вы не можете редактировать свои сообщения
    Вы не можете удалять свои сообщения
    Вы не можете голосовать в опросах
    Вы не можете прикреплять файлы к сообщениям
    Вы можете скачивать файлы