Ссылка на приватное зеркало нашего сайта всего за 1$. Внимание количество ограничено!!!

2 сезон

iTunes

1 сезон

1

2 сезон

2 сезон

iTunes

1 сезон

RePack

30

Ultimate

ВАЖНО

ИГРА 18+

pack

RePack

MK11
pack

Забери бонус

RePack

jed

!!Акция!!

Alien_Rage

RePack

fifa19

RePack

Assassins Creed: Odyssey

RePack

NEED FOR SPEED™ PAYBACK

4 сезон

9 сезон

Бесстыжие 9 сезон

Все сериалы

все сериалы на PB.wtf

RePack

FAR CRY 5
  

Блеск / GLOW / Сезон: 2 / Серии: 1-10 из 10 (Кейт Дэннис, Тодд Фьельстед, Тристрам Шапиро) [2018, Драма, комедия, спорт, WEBRip 720p] MVO [Jaskier] pb.wtf

Блеск через торрент pb.wtf

Размер: 20.9 GB | Добавлен: 2 года 4 мес. назад | Торрент скачан:26 раз
Скачать  

10-07-2018 05:59 Блеск Скачать торрент  

Блеск / GLOW
Информация о фильме:

Год выхода: 2018
Название: Блеск
Оригинальное: GLOW
Страна: США
Жанр: Драма, комедия, спорт
Продолжительность: ~ 00:37:00 серия
Перевод: Профессиональный (многоголосый) | Jaskier
Субтитры: английские

Режиссер: Кейт Дэннис, Тодд Фьельстед, Тристрам Шапиро

rating

В ролях:

Эллен Вонг, Элисон Бри, Ким Гейтвуд, Бетти Джилпин, Ребекка Джонсон, Сунита Мани, Сидель Грэйнджер, Гэйл Ранкин и др.

Описание:

История безработной актрисы из Лос-Анджелеса по имени Рут, которая в отчаянной попытке самореализации решает сняться в сериале о женщинах-рестлерах и оказывается в мире пышных причёсок, блеска и спандекса.



Информация о файле:

Качество: WEBRip 720p
Формат: MKV

Видео: ~ 8100 kbps, 1280x640
Аудио#1 RU: AC3, 6 ch, 384 kbps
Аудио#2 EN: AC3, 6 ch, 384 kbps
скриншот  скриншот  скриншот  

Общее
Уникальный идентификатор : 216713260272300601758609108223220274102 (0xA30974AABFB5542FB340B79F1E8853B6)
Полное имя : D:\GLOW. Season 2 (WEBRip l 720p l Jaskier)\GLOW.S02E01.720p.WEBRip.DD5.1.x264-JASKiER.mkv
Формат : Matroska
Версия формата : Version 2
Размер файла : 2,08 Гбайт
Продолжительность : 33 м. 30 с.
Общий поток : 8879 Кбит/сек
Дата кодирования : UTC 2018-07-09 22:41:36
Программа кодирования : mkvmerge v7.8.0 ('River Man') 32bit built on Apr 3 2015 12:11:22
Библиотека кодирования : libebml v1.3.1 + libmatroska v1.4.2

Видео
Идентификатор : 1
Формат : AVC
Формат/Информация : Advanced Video Codec
Профиль формата : High@L4.1
Параметр CABAC формата : Да
Параметр RefFrames формата : 9 кадров
Идентификатор кодека : V_MPEG4/ISO/AVC
Продолжительность : 33 м. 30 с.
Битрейт : 8110 Кбит/сек
Ширина : 1280 пикселей
Высота : 640 пикселей
Соотношение сторон : 2,000
Режим частоты кадров : Постоянный
Частота кадров : 23,976 (24000/1001) кадра/сек
Цветовое пространство : YUV
Субдискретизация насыщенности : 4:2:0
Битовая глубина : 8 бит
Тип развёртки : Прогрессивная
Бит/(Пиксели*Кадры) : 0.413
Размер потока : 1,86 Гбайт (89%)
Библиотека кодирования : x264 core 152 r2851kMod ba24899
Настройки программы : cabac=1 / ref=9 / deblock=1:-3:-3 / analyse=0x3:0x113 / me=umh / subme=10 / psy=1 / fade_compensate=0.00 / psy_rd=1.00:0.00 / mixed_ref=1 / me_range=32 / chroma_me=1 / trellis=2 / 8x8dct=1 / cqm=0 / deadzone=21,11 / fast_pskip=1 / chroma_qp_offset=-2 / threads=12 / lookahead_threads=2 / sliced_threads=0 / nr=0 / decimate=0 / interlaced=0 / bluray_compat=0 / constrained_intra=0 / bframes=7 / b_pyramid=2 / b_adapt=2 / b_bias=0 / direct=3 / weightb=1 / open_gop=0 / weightp=2 / keyint=240 / keyint_min=23 / scenecut=40 / intra_refresh=0 / rc_lookahead=40 / rc=2pass / mbtree=0 / bitrate=8110 / ratetol=1.0 / qcomp=0.60 / qpmin=0 / qpmax=69 / qpstep=4 / cplxblur=20.0 / qblur=0.5 / vbv_maxrate=50000 / vbv_bufsize=62500 / nal_hrd=none / filler=0 / ip_ratio=1.30 / pb_ratio=1.20 / aq=3:0.70
Язык : English
Default : Да
Forced : Нет

Аудио #1
Идентификатор : 2
Формат : AC-3
Формат/Информация : Audio Coding 3
Расширение режима : CM (complete main)
Параметр Endianness формата : Big
Идентификатор кодека : A_AC3
Продолжительность : 33 м. 30 с.
Вид битрейта : Постоянный
Битрейт : 384 Кбит/сек
Каналы : 6 каналов
Расположение каналов : Front: L C R, Side: L R, LFE
Частота : 48,0 КГц
Частота кадров : 31,250 кадров/сек (1536 spf)
Метод сжатия : С потерями
Размер потока : 92,0 Мбайт (4%)
Заголовок : Jaskier
Язык : Russian
Default : Да
Forced : Нет

Аудио #2
Идентификатор : 3
Формат : AC-3
Формат/Информация : Audio Coding 3
Расширение режима : CM (complete main)
Параметр Endianness формата : Big
Идентификатор кодека : A_AC3
Продолжительность : 33 м. 30 с.
Вид битрейта : Постоянный
Битрейт : 384 Кбит/сек
Каналы : 6 каналов
Расположение каналов : Front: L C R, Side: L R, LFE
Частота : 48,0 КГц
Частота кадров : 31,250 кадров/сек (1536 spf)
Метод сжатия : С потерями
Размер потока : 92,0 Мбайт (4%)
Язык : English
Default : Нет
Forced : Нет

Текст
Идентификатор : 4
Формат : UTF-8
Идентификатор кодека : S_TEXT/UTF8
Идентификатор кодека/Информация : UTF-8 Plain Text
Язык : English
Default : Нет
Forced : Нет

pb.wtf



Скачать Блеск через торрент https://img11.lostpic.net/2018/07/10/f15570208861880bb9237623f0746a85.png Скачать фильм Блеск через торрент бесплантно в хорошем качестве Описание: История безработной актрисы из Лос-Анджелеса по имени Рут, которая в отчаянной попытке самореализации решает сняться в сериале о ... 10 10 3
Торрент: Зарегистрирован [2018-07-10 05:59] · скачан: 26 раз
Статус: √ проверено
Размер: 20.9 GB
Как cкачать? Как скачать Блеск через торрент | qTorrent

% Раздел Тема Автор DL S | L
Зарубежные сериалы [ 32.99 GB ] Блеск / GLOW / Сезон: 2 / Серии: 1-10 из 10 [2018 WEBRip 1080p] MVO [AMS] bober100 Скачать
1 | 0
Зарубежные сериалы [ 4.11 GB ] Блеск / GLOW / Сезон: 2 / Серии: 1-10 из 10 [2018 WEBRip] MVO [Jaskier] bober100 Скачать
1 | 0

28-11-2019 20:33  

Отключить всю рекламу на сайте

    Дорогой пользователь! Огромная просьба, поблагодарите релизера, оцените раздачу и оставьте свои комментарий, если Вы скачали Блеск через торрент бесплатно! Внесите свою лепту в развитие PiratBit!
    Комментировать посты могут только пользователи прошедшие не сложную регистрацию
    Показать сообщения:    

    Блеск через торрент
    Скачать бесплатно Блеск
    Блеск скачать торрент
    Блеск смотреть онлайн
    Cкачать фильм Блеск бесплатно
    Блеск скачать торрент в хорошем качестве
    Блеск смотреть онлайн бесплатно в хорошем качестве


    Вы не можете начинать темы
    Вы не можете отвечать на сообщения
    Вы не можете редактировать свои сообщения
    Вы не можете удалять свои сообщения
    Вы не можете голосовать в опросах
    Вы не можете прикреплять файлы к сообщениям
    Вы можете скачивать файлы