2 сезон

iTunes

MVO

1

2 сезон

iTunes

iTunes

1 сезон

RePack

30

Новинка

ВАЖНО

ИГРА 18+

pack

RePack

MK11
pack

Легкие деньги

RePack

jed

RePack

fifa19

RePack

RDR2

RePack

NEED FOR SPEED™ PAYBACK

4 сезон

9 сезон

Бесстыжие 9 сезон

Все сериалы

все сериалы на PB.wtf

RePack

FAR CRY 5

Anonymous, доброй ночи, мы не успеваем собрать деньги на оплату серверов за декабрь и январь, помогите нам пожалуйста в это трудное время. В качестве благодарности мы отключим Вам всю рекламу на сайте (укажите свой ник в строку Ваше имя)!

×
  
Magnet ссылка

Первому игроку приготовиться в 3Д / Ready Player One 3D (Стивен Спилберг) [2018, фантастика, боевик, приключения, BDRip 1080p] DUB | Half OverUnder / Вертикальная анаморфная стереопара pb.wtf

Первому игроку приготовиться в 3Д через торрент pb.wtf

Раздают: 1 [ 0 KB/s ]
Размер: 17.42 GB | Добавлен: 2 года 6 мес. назад | Торрент скачан:346 раз
Скачать  

10-07-2018 11:12 Первому игроку приготовиться в 3Д Скачать торрент  

Первому игроку приготовиться в 3Д / Ready Player One 3D«Загрузи новую реальность»
Год выпуска: 2018
Страна: США
Жанр: фантастика, боевик, приключения
Продолжительность: 02:19:58
Перевод: Дублированный [лицензия]
Субтитры: Русские (полные, форсированные)
Режиссер: Стивен Спилберг
В ролях:

Тай Шеридан (Parzival / Wade), Оливия Кук (Art3mis / Samantha), Бен Мендельсон (Sorrento), Лина Уэйте (Aech / Helen), ТиДжей Миллер (I-R0k), Саймон Пегг (Ogden Morrow), Марк Райлэнс (Anorak / Halliday), Филип Чжао (Sho), Уин Морисаки (Daito), Ханна Джон-Кэймен (F'Nale Zandor), Ралф Айнесон (Rick), Сьюзэн Линч (Alice)
Описание:
Действие фильма происходит в 2045 году, мир погружается в хаос и находится на грани коллапса. Люди ищут спасения в игре OASIS - огромной вселенной виртуальной реальности. Ее создатель, гениальный и эксцентричный Джеймс Холлидэй, оставляет уникальное завещание. Все его колоссальное состояние получит игрок, первым обнаруживший цифровое «пасхальное яйцо», которое миллиардер спрятал где-то на просторах OASISа. Запущенный им квест охватывает весь мир. Совершенно негероический парень по имени Уэйд Уоттс решает принять участие в состязании, с головой бросаясь в головокружительную, искажающую реальность погоню за сокровищами по фантастической вселенной, полной загадок, открытий и опасностей.
Рейтинг:

MPAA: PG-13 - Детям до 13 лет просмотр не желателен
Качество: BDRip 1080p
Формат: MKV
Формат 3D: Half OverUnder / Вертикальная анаморфная стереопара
Видео: MPEG-4 AVC, 16000 Kбит/с, 1920x1080
Аудио: русский / AC3, 6 ch, 384 Кбит/с - Дублированный
Аудио: английский / DTS, 6 ch, 1509 Кбит/с - Оригинал
Навигация по главам: есть
General
Unique ID : 202144715649276294232696668811817359681 (0x9813A7F5F6B5F6E9B47B74BFB8D79941)
Complete name : D:\Ready.Player.One.2018.1080p.3D.BluRay.Half-OU.x264.DTS-HD.Master5.mkv
Format : Matroska
Format version : Version 4 / Version 2
File size : 17.4 GiB
Duration : 2 h 19 min
Overall bit rate : 17.8 Mb/s
Movie name : Ready.Player.One.2018.1080p.3D.BluRay.Half-OU.x264.DTS-HD.Master5
Encoded date : UTC 2018-07-09 23:20:42
Writing application : mkvmerge v7.9.0 ('Birds') 64bit
Writing library : libebml v1.3.1 + libmatroska v1.4.2
Cover : Yes
Attachments : small_cover.jpg / small_cover_land.jpg / cover.jpg / cover_land.jpg

Video
ID : 1
Format : AVC
Format/Info : Advanced Video Codec
Format profile : High@L4.1
Format settings, CABAC : Yes
Format settings, RefFrames : 3 frames
Codec ID : V_MPEG4/ISO/AVC
Duration : 2 h 19 min
Bit rate : 16.0 Mb/s
Width : 1 920 pixels
Height : 1 080 pixels
Display aspect ratio : 16:9
Frame rate mode : Constant
Frame rate : 23.976 (24000/1001) FPS
Color space : YUV
Chroma subsampling : 4:2:0
Bit depth : 8 bits
Scan type : Progressive
Bits/(Pixel*Frame) : 0.322
Stream size : 15.6 GiB (89%)
Title : Ready.Player.One.2018.1080p.3D.BluRay.Half-OU.x264.DTS-HD.Master5
Writing library : x264 core 148
Encoding settings : cabac=1 / ref=3 / deblock=1:-1:-1 / analyse=0x3:0 / me=hex / subme=5 / psy=1 / psy_rd=1.00:0.00 / mixed_ref=0 / me_range=16 / chroma_me=1 / trellis=1 / 8x8dct=1 / cqm=0 / deadzone=21,11 / fast_pskip=0 / chroma_qp_offset=0 / threads=24 / lookahead_threads=6 / sliced_threads=0 / nr=0 / decimate=1 / interlaced=0 / bluray_compat=0 / constrained_intra=0 / bframes=2 / b_pyramid=0 / b_adapt=1 / b_bias=0 / direct=1 / weightb=0 / open_gop=0 / weightp=0 / keyint=24 / keyint_min=2 / scenecut=40 / intra_refresh=0 / rc=abr / mbtree=0 / bitrate=16000 / ratetol=1.0 / qcomp=0.60 / qpmin=0 / qpmax=69 / qpstep=4 / ip_ratio=1.40 / pb_ratio=1.30 / aq=1:1.00
Default : Yes
Forced : No
Color range : Limited
Color primaries : BT.709
Transfer characteristics : BT.709
Matrix coefficients : BT.709

Audio #1
ID : 2
Format : AC-3
Format/Info : Audio Coding 3
Format settings, Endianness : Big
Codec ID : A_AC3
Duration : 2 h 19 min
Bit rate mode : Constant
Bit rate : 384 kb/s
Channel(s) : 6 channels
Channel positions : Front: L C R, Side: L R, LFE
Sampling rate : 48.0 kHz
Frame rate : 31.250 FPS (1536 SPF)
Bit depth : 16 bits
Compression mode : Lossy
Stream size : 384 MiB (2%)
Language : Russian
Service kind : Complete Main
Default : No
Forced : No

Audio #2
ID : 3
Format : DTS
Format/Info : Digital Theater Systems
Mode : 16
Format settings, Endianness : Big
Codec ID : A_DTS
Duration : 2 h 19 min
Bit rate mode : Constant
Bit rate : 1 509 kb/s
Channel(s) : 6 channels
Channel positions : Front: L C R, Side: L R, LFE
Sampling rate : 48.0 kHz
Frame rate : 93.750 FPS (512 SPF)
Bit depth : 16 bits
Compression mode : Lossy
Stream size : 1.48 GiB (8%)
Title : Ready.Player.One.2018.1080p.3D.BluRay.Half-OU.x264.DTS-HD.Master5
Language : English
Default : No
Forced : No

Text #1
ID : 4
Format : PGS
Muxing mode : zlib
Codec ID : S_HDMV/PGS
Codec ID/Info : Picture based subtitle format used on BDs/HD-DVDs
Duration : 2 h 18 min
Bit rate : 8 178 b/s
Count of elements : 2824
Stream size : 8.13 MiB (0%)
Title : Russian-PGS
Language : Russian
Default : No
Forced : No

Text #2
ID : 5
Format : PGS
Muxing mode : zlib
Codec ID : S_HDMV/PGS
Codec ID/Info : Picture based subtitle format used on BDs/HD-DVDs
Duration : 2 h 18 min
Bit rate : 185 b/s
Count of elements : 72
Stream size : 189 KiB (0%)
Title : Russian-FORCED-PGS
Language : Russian
Default : No
Forced : No

Menu
00:00:00.000 : en:(01)00:00:00:000
00:10:08.232 : en:(02)00:10:08:232
00:20:18.258 : en:(03)00:20:18:258
00:30:37.627 : en:(04)00:30:37:627
00:40:38.269 : en:(05)00:40:38:269
00:50:08.964 : en:(06)00:50:08:964
01:03:01.778 : en:(07)01:03:01:778
01:11:55.269 : en:(08)01:11:55:269
01:20:14.726 : en:(09)01:20:14:726
01:30:58.327 : en:(10)01:30:58:327
01:43:26.742 : en:(11)01:43:26:742
01:53:02.150 : en:(12)01:53:02:150
02:04:20.161 : en:(13)02:04:20:161
02:09:17.249 : en:(14)02:09:17:249
02:19:58.014 : en:(15)02:19:58:014
pb.wtf



Скачать Первому игроку приготовиться в 3Д через торрент https://d.radikal.ru/d40/1807/a1/d44e73a52f4d.png Скачать фильм Первому игроку приготовиться в 3Д через торрент бесплантно в хорошем качестве Описание: Действие фильма происходит в 2045 году, мир погружается в хаос и находится на грани коллапса. Люди ищут спасения в игре OASIS - ... 10 10 10
Info! Золотая раздача, скачанное не засчитывается.
Торрент: Зарегистрирован [2018-07-10 11:12] · скачан: 346 раз
Статус: √ проверено
Размер: 17.42 GB
Как cкачать? Как скачать Первому игроку приготовиться в 3Д через торрент | UTorrent

28-11-2019 20:33  

Отключить всю рекламу на сайте

10-07-2018 12:13 Первому игроку приготовиться в 3Д Скачать торрент  

Первому игроку приготовиться в 3аД.pb.wtf



  Флуд., выдал Arron_H1De

10-07-2018 14:33 Первому игроку приготовиться в 3Д Скачать торрент  

И где здесь флуд?pb.wtf



10-07-2018 15:41 Первому игроку приготовиться в 3Д Скачать торрент  

Аллилуйя!!! Вертикальная стереопара pb.wtf



    Дорогой пользователь! Огромная просьба, поблагодарите релизера, оцените раздачу и оставьте свои комментарий, если Вы скачали Первому игроку приготовиться в 3Д через торрент бесплатно! Внесите свою лепту в развитие PiratBit!
    Комментировать посты могут только пользователи прошедшие не сложную регистрацию
    Показать сообщения:    

    Первому игроку приготовиться в 3Д через торрент
    Скачать бесплатно Первому игроку приготовиться в 3Д
    Первому игроку приготовиться в 3Д скачать торрент
    Первому игроку приготовиться в 3Д смотреть онлайн
    Cкачать фильм Первому игроку приготовиться в 3Д бесплатно
    Первому игроку приготовиться в 3Д скачать торрент в хорошем качестве
    Первому игроку приготовиться в 3Д смотреть онлайн бесплатно в хорошем качестве


    Вы не можете начинать темы
    Вы не можете отвечать на сообщения
    Вы не можете редактировать свои сообщения
    Вы не можете удалять свои сообщения
    Вы не можете голосовать в опросах
    Вы не можете прикреплять файлы к сообщениям
    Вы можете скачивать файлы