Ссылка на приватное зеркало нашего сайта всего за 1$. Внимание количество ограничено!!!

2 сезон

iTunes

1 сезон

1

2 сезон

2 сезон

iTunes

1 сезон

RePack

30

Ultimate

ВАЖНО

ИГРА 18+

pack

RePack

MK11
pack

Забери бонус

RePack

jed

!!Акция!!

Alien_Rage

RePack

fifa19

RePack

Assassins Creed: Odyssey

RePack

NEED FOR SPEED™ PAYBACK

4 сезон

9 сезон

Бесстыжие 9 сезон

Все сериалы

все сериалы на PB.wtf

RePack

FAR CRY 5
  

Фарго / Fargo / Сезон: 3 / Серии: 1-10 из 10 (Мэтт Шекман, Скотт Уинант, Адам Бернштейн) [2017, Драма, криминал, WEBRip] DVO [Кубик в Кубе] pb.wtf

Фарго через торрент pb.wtf

Раздают: 2 [ 0 KB/s ]
Размер: 6.75 GB | Добавлен: 2 года 4 мес. назад | Торрент скачан:199 раз
Скачать  

10-07-2018 13:05 Фарго Скачать торрент  

Фарго / Fargo
Информация о фильме:

Название: Фарго
Оригинальное название: Fargo
Год выпуска: 2017
Страна: США
Жанр: Драма, криминал
Продолжительность: 00:50:00 серия
Перевод: Профессиональный двухголосый | Кубик в Кубе
Субтитры: отсутствуют

Режиссер: Мэтт Шекман, Скотт Уинант, Адам Бернштейн

rating

В ролях:

Юэн Макгрегор, Кэрри Кун, Мэри Элизабет Уинстэд, Джим Гэффиган, Дэвид Тьюлис, Майкл Сталберг, Скут Макнэйри, Ши Уигхэм, Каран Сони, Фред Меламед, Томас Манн

Описание:

Действие разворачивается в 2010 году. Король парковок Миннесоты Эммит считает себя воплощением американской мечты. Его младший брат Рэй — лысеющий сотрудник службы надзора за условно освобожденными — постоянно живет в тени своего успешного брата. Их соперничество быстро набирает обороты....



Информация о файле:

Качество: WEBRip
Формат: AVI

Видео: ~ 1400 kbps, 704x352, 23.976 fps
Аудио#1 RU: MP3, 2 ch, 128 kbps
Аудио#2 EN: MP3, 2 ch, 128 kbps
скриншот   скриншот   скриншот  скриншот  скриншот  

Общее
Полное имя : D:\Fargo (Season 03) KvK\Fargo.s03e01.WEBRip.XviD.Rus.Eng.KvK.avi
Формат : AVI
Формат/Информация : Audio Video Interleave
Размер файла : 838 Мбайт
Продолжительность : 1 ч. 6 м.
Общий поток : 1762 Кбит/сек
Программа кодирования : VirtualDubMod 1.5.10.3 | www.virtualdub-fr.org || (build 2550/release)
Библиотека кодирования : VirtualDubMod build 2550/release

Видео
Идентификатор : 0
Формат : MPEG-4 Visual
Профиль формата : Advanced Simple@L5
Параметр BVOP формата : 1
Параметр QPel формата : Нет
Параметр GMC формата : Без точки перехода
Параметр матрицы формата : Default (MPEG)
Идентификатор кодека : XVID
Идентификатор кодека/Подсказка : XviD
Продолжительность : 1 ч. 6 м.
Битрейт : 1492 Кбит/сек
Ширина : 704 пикселя
Высота : 352 пикселя
Соотношение сторон : 2,000
Частота кадров : 23,976 (23976/1000) кадра/сек
Цветовое пространство : YUV
Субдискретизация насыщенности : 4:2:0
Битовая глубина : 8 бит
Тип развёртки : Прогрессивная
Метод сжатия : С потерями
Бит/(Пиксели*Кадры) : 0.251
Размер потока : 709 Мбайт (85%)
Библиотека кодирования : XviD 73

Аудио #1
Идентификатор : 1
Формат : MPEG Audio
Версия формата : Version 1
Профиль формата : Layer 3
Режим : Joint stereo
Расширение режима : MS Stereo
Идентификатор кодека : 55
Идентификатор кодека/Подсказка : MP3
Продолжительность : 1 ч. 6 м.
Вид битрейта : Постоянный
Битрейт : 128 Кбит/сек
Каналы : 2 канала
Частота : 48,0 КГц
Метод сжатия : С потерями
Размер потока : 60,9 Мбайт (7%)
Выравнивание : Соединение по промежуткам
Продолжительность промежутка : 42 мс. (1,00 видеокадр)
Время предзагрузки промежутка : 504 мс.

Аудио #2
Идентификатор : 2
Формат : MPEG Audio
Версия формата : Version 1
Профиль формата : Layer 3
Режим : Joint stereo
Расширение режима : MS Stereo
Идентификатор кодека : 55
Идентификатор кодека/Подсказка : MP3
Продолжительность : 1 ч. 6 м.
Вид битрейта : Постоянный
Битрейт : 128 Кбит/сек
Каналы : 2 канала
Частота : 48,0 КГц
Метод сжатия : С потерями
Размер потока : 60,9 Мбайт (7%)
Выравнивание : Соединение по промежуткам
Продолжительность промежутка : 42 мс. (1,00 видеокадр)
Время предзагрузки промежутка : 504 мс.

pb.wtf



Скачать Фарго через торрент https://img11.lostpic.net/2018/07/10/fb898565a13ed64f468da86ddd51110b.png Скачать фильм Фарго через торрент бесплантно в хорошем качестве Описание: Действие разворачивается в 2010 году. Король парковок Миннесоты Эммит считает себя воплощением американской мечты. Его младший ... 10 10 6
Торрент: Зарегистрирован [2018-07-10 13:05] · скачан: 199 раз
Статус: √ проверено
Размер: 6.75 GB
Как cкачать? Как скачать Фарго через торрент | qTorrent

% Раздел Тема Автор DL S | L
Зарубежные сериалы [ 8.99 GB ] Фарго / Fargo / Сезон: 3 / Серии: 1-10 из 10 [2017 WEBRip] [DVO] killermax2013 Скачать
2 | 0
Зарубежные сериалы [ 9.5 GB ] Фарго / Fargo / Сезон: 3 / Серии 1-10 из 10 [2017 WEB-DLRip-AVC] MVO [NewStudio] GEKADOL Скачать
3 | 0
Релизы по Парсеру [Игры, Сериалы и Фильмы и другое...] [ 16.41 GB ] Фарго / Fargo / Сезон: 3 / Серии 1-10 из 10 [2017 WEBRip] [720p] [DVO] killermax2013 Скачать
2 | 0
Зарубежные сериалы [ 31.1 GB ] Фарго / Fargo / Сезон: 3 / Серии 1-10 из 10 [2017 WEBRip 1080p] [MVO] killermax2013 Скачать
1 | 0

28-11-2019 20:33  

Отключить всю рекламу на сайте

10-07-2018 13:29 Фарго Скачать торрент  

Сериал замечательный, правда восхищение вызвал только первый сезон)pb.wtf



10-07-2018 18:06 Фарго Скачать торрент  

3й сезон (этот торрент) такой же сильный и интересный, как и первые два. очень советую. юэн макгрегор был отмечен наградой за работу в этом сериале - он играет обоих братьев близнецов и делает это просто прекрасно.pb.wtf



    Дорогой пользователь! Огромная просьба, поблагодарите релизера, оцените раздачу и оставьте свои комментарий, если Вы скачали Фарго через торрент бесплатно! Внесите свою лепту в развитие PiratBit!
    Комментировать посты могут только пользователи прошедшие не сложную регистрацию
    Показать сообщения:    

    Фарго через торрент
    Скачать бесплатно Фарго
    Фарго скачать торрент
    Фарго смотреть онлайн
    Cкачать фильм Фарго бесплатно
    Фарго скачать торрент в хорошем качестве
    Фарго смотреть онлайн бесплатно в хорошем качестве


    Вы не можете начинать темы
    Вы не можете отвечать на сообщения
    Вы не можете редактировать свои сообщения
    Вы не можете удалять свои сообщения
    Вы не можете голосовать в опросах
    Вы не можете прикреплять файлы к сообщениям
    Вы можете скачивать файлы