Всегда рабочее зеркало без VPN и Proxy просто перед .vidak.icu напиши любое слово или цифру, Пример http://3j01.vidak.icu

Лицензия

MVO

1 сезон

1

1 сезон

iTunes

1 сезон

13

1 сезон

Deluxe

pack

Рекомендуем

Repack

30

ВАЖНО

RePack

MK11

RePack

jed

RePack

fifa19

RePack

RDR2

RePack

NEED FOR SPEED™ PAYBACK

Кинопоиск HD

6 сезон

 Острые козырьки 6 сезон

Все сериалы

все сериалы на PB.wtf

RePack

FAR CRY 5
  
Magnet ссылка

Жажда смерти / Death Wish (Элай Рот) [2018, боевик, триллер, криминал, UHD BDRip 2160p] DUB [iTunes] pb.wtf

Жажда смерти через торрент pb.wtf

Размер: 9.4 GB | Добавлен: 4 года 1 мес. назад | Торрент скачан:125 раз
Смотреть онлайн Жажда смерти | Скачать    Ребята, помогите собрать деньги на оплату серверов!!!

10-07-2018 17:24 Жажда смерти Скачать торрент  

Жажда смерти / Death Wish«Он мстит бодро, весело и со вкусом»
Год выпуска: 2018
Страна: США
Жанр: боевик, триллер, криминал
Продолжительность: 01:46:43
Перевод: Дублированный [iTunes]
Субтитры: Английские, итальянские
Режиссер: Элай Рот
В ролях:

Брюс Уиллис (Paul Kersey), Винсент Д’Онофрио (Frank Kersey), Элизабет Шу (Lucy Kersey), Камила Морроне (Jordan Kersey), Дин Норрис (Detective Kevin Raines), Бо Напп (Knox), Кимберли Элиз (Detective Leonore Jackson), Лен Кариу (Ben), Джек Кеси (The Fish), Ронни Джин Блевинс (Joe), Кирби Блисс Блэнтон (Bethany), Андреас Апергис (Belligerent Dad)
Описание:
Пол Керси - хирург, привыкший вытаскивать людей с того света после криминальных разборок. Но после того, как его жена и дочь становятся жертвами уличной банды, а полиция бездействует, он берет карающий меч правосудия в свои руки. Видео изобретательных убийств преступников покоряют интернет-топы, а среди жителей города расходятся слухи о неуловимом народном мстителе, которому теперь принадлежит весь город. Он мстит бодро, весело и со вкусом.
Рейтинг:

MPAA: R - Лицам до 17 лет обязательно присутствие взрослого
Качество: UHD BDRip 2160p
Формат: MKV
Видео: HEVC, HDR, 12.5 Mбит/с, 3840x1600, 23.976 кадр/с
Аудио #01: 48 kHz, AC3, 5.1, 384 Kbps | iTunes | RUS |
Аудио #02: 48 kHz, DTS-HD MA, 5.1, 1920 Kbps | Оригинал | ENG |
Аудио #03: 48 kHz, AC3, 5.1, 640 Kbps | Оригинал | ENG |
Навигация по главам: Есть
Complete name : E:\Death.Wish.2018.2160p.BluRay.x265.10bit.HDR.DTS-HD.MA.5.1-SpaceHD13.mkv
Format : Matroska
Format version : Version 4 / Version 2
File size : 9.40 GiB
Duration : 1 h 47 min
Overall bit rate : 12.5 Mb/s
Movie name : Death.Wish.2018.2160p.BluRay.x265.10bit.HDR.DTS-HD.MA.5.1-SpaceHD13
Encoded date : UTC 2018-07-10 10:30:19
Writing application : mkvmerge v24.0.0 ('Beyond The Pale') 64-bit
Writing library : libebml v1.3.6 + libmatroska v1.4.9

Video
ID : 1
Format : HEVC
Format/Info : High Efficiency Video Coding
Commercial name : HDR10
Format profile : Main [email protected]@High
Codec ID : V_MPEGH/ISO/HEVC
Duration : 1 h 47 min
Bit rate : 9 479 kb/s
Width : 3 840 pixels
Height : 1 600 pixels
Display aspect ratio : 2.40:1
Frame rate mode : Constant
Frame rate : 23.976 (24000/1001) FPS
Original frame rate : 24.000 FPS
Color space : YUV
Chroma subsampling : 4:2:0 (Type 2)
Bit depth : 10 bits
Bits/(Pixel*Frame) : 0.064
Stream size : 7.15 GiB (76%)
Title : Death.Wish.2018.2160p.BluRay.x265.10bit.HDR.DTS-HD.MA.5.1-SpaceHD13
Writing library : x265 2.8+24-289b8a3730ae:[Windows][GCC 7.3.0][64 bit] 10bit
Encoding settings : cpuid=1111039 / frame-threads=16 / numa-pools=24,24,24,24 / wpp / no-pmode / no-pme / no-psnr / no-ssim / log-level=2 / input-csp=1 / input-res=3840x1600 / interlace=0 / total-frames=0 / level-idc=51 / high-tier=1 / uhd-bd=0 / ref=3 / no-allow-non-conformance / repeat-headers / annexb / aud / hrd / info / hash=0 / no-temporal-layers / no-open-gop / min-keyint=1 / keyint=24 / gop-lookahead=0 / bframes=4 / b-adapt=2 / b-pyramid / bframe-bias=0 / rc-lookahead=25 / lookahead-slices=4 / scenecut=40 / radl=0 / no-intra-refresh / ctu=64 / min-cu-size=8 / no-rect / no-amp / max-tu-size=32 / tu-inter-depth=1 / tu-intra-depth=1 / limit-tu=0 / rdoq-level=0 / dynamic-rd=0.00 / no-ssim-rd / signhide / no-tskip / nr-intra=0 / nr-inter=0 / no-constrained-intra / strong-intra-smoothing / max-merge=2 / limit-refs=3 / no-limit-modes / me=1 / subme=2 / merange=57 / temporal-mvp / weightp / no-weightb / no-analyze-src-pics / deblock=0:0 / no-sao / no-sao-non-deblock / rd=3 / no-early-skip / rskip / no-fast-intra / no-tskip-fast / no-cu-lossless / no-b-intra / no-splitrd-skip / rdpenalty=0 / psy-rd=2.00 / psy-rdoq=0.00 / no-rd-refine / no-lossless / cbqpoffs=0 / crqpoffs=0 / rc=crf / crf=16.0 / qcomp=0.60 / qpstep=4 / stats-write=0 / stats-read=0 / vbv-maxrate=160000 / vbv-bufsize=160000 / vbv-init=0.9 / crf-max=0.0 / crf-min=0.0 / ipratio=1.40 / pbratio=1.30 / aq-mode=1 / aq-strength=1.00 / cutree / zone-count=0 / no-strict-cbr / qg-size=32 / no-rc-grain / qpmax=69 / qpmin=0 / no-const-vbv / sar=1 / overscan=0 / videoformat=5 / range=0 / colorprim=9 / transfer=16 / colormatrix=9 / chromaloc=1 / chromaloc-top=2 / chromaloc-bottom=2 / display-window=0 / master-display=G(13250,34500)B(7500,3000)R(34000,16000)WP(15635,16450)L(10000000,00) / max-cll=1000,13 / min-luma=0 / max-luma=1023 / log2-max-poc-lsb=8 / vui-timing-info / vui-hrd-info / slices=1 / no-opt-qp-pps / no-opt-ref-list-length-pps / no-multi-pass-opt-rps / scenecut-bias=0.05 / no-opt-cu-delta-qp / no-aq-motion / hdr / hdr-opt / no-dhdr10-opt / no-idr-recovery-sei / analysis-reuse-level=5 / scale-factor=0 / refine-intra=0 / refine-inter=0 / refine-mv=0 / no-limit-sao / ctu-info=0 / no-lowpass-dct / refine-mv-type=0 / copy-pic=1 / max-ausize-factor=1.0 / no-dynamic-refine / no-single-sei
Default : Yes
Forced : No
Color range : Limited
Color primaries : BT.2020
Transfer characteristics : PQ
Matrix coefficients : BT.2020 non-constant
Mastering display color pri : Display P3
Mastering display luminance : min: 0.0000 cd/m2, max: 1000 cd/m2
Maximum Content Light Level : 1000 cd/m2
Maximum Frame-Average Light : 13 cd/m2

Audio #1
ID : 2
Format : DTS
Format/Info : Digital Theater Systems
Format profile : MA / Core
Codec ID : A_DTS
Duration : 1 h 47 min
Bit rate mode : Variable / Constant
Bit rate : 1 920 kb/s / 1 509 kb/s
Channel(s) : 6 channels
Channel positions : Front: L C R, Side: L R, LFE
Sampling rate : 48.0 kHz
Frame rate : 93.750 FPS (512 SPF)
Bit depth : 16 bits
Compression mode : Lossless / Lossy
Stream size : 1.47 GiB (16%)
Title : Death.Wish.2018.2160p.BluRay.x265.10bit.HDR.DTS-HD.MA.5.1-SpaceHD13
Language : English
Default : No
Forced : No

Audio #2
ID : 3
Format : AC-3
Format/Info : Audio Coding 3
Codec ID : A_AC3
Duration : 1 h 47 min
Bit rate mode : Constant
Bit rate : 640 kb/s
Channel(s) : 6 channels
Channel positions : Front: L C R, Side: L R, LFE
Sampling rate : 48.0 kHz
Frame rate : 31.250 FPS (1536 SPF)
Bit depth : 16 bits
Compression mode : Lossy
Stream size : 494 MiB (5%)
Title : Death.Wish.2018.2160p.BluRay.x265.10bit.HDR.DTS-HD.MA.5.1-SpaceHD13
Language : English
Service kind : Complete Main
Default : No
Forced : No

Audio #3
ID : 4
Format : AC-3
Format/Info : Audio Coding 3
Codec ID : A_AC3
Duration : 1 h 47 min
Bit rate mode : Constant
Bit rate : 384 kb/s
Channel(s) : 6 channels
Channel positions : Front: L C R, Side: L R, LFE
Sampling rate : 48.0 kHz
Frame rate : 31.250 FPS (1536 SPF)
Bit depth : 16 bits
Compression mode : Lossy
Delay relative to video : 500 ms
Stream size : 295 MiB (3%)
Title : Death.Wish.2018.2160p.BluRay.x265.10bit.HDR.DTS-HD.MA.5.1-SpaceHD13
Language : Russian
Service kind : Complete Main
Default : Yes
Forced : Yes

Text #1
ID : 5
Format : UTF-8
Codec ID : S_TEXT/UTF8
Codec ID/Info : UTF-8 Plain Text
Duration : 1 h 40 min
Bit rate : 63 b/s
Count of elements : 1568
Stream size : 46.6 KiB (0%)
Title : English-SRT
Language : English
Default : Yes
Forced : No

Text #2
ID : 6
Format : PGS
Muxing mode : zlib
Codec ID : S_HDMV/PGS
Codec ID/Info : Picture based subtitle format used on BDs/HD-DVDs
Duration : 1 h 40 min
Bit rate : 33.2 kb/s
Count of elements : 2572
Stream size : 23.8 MiB (0%)
Title : Italian-PGS
Language : Italian
Default : No
Forced : No

Menu
00:00:00.000 : en:Chapter 1
00:10:19.708 : en:Chapter 2
00:17:42.750 : en:Chapter 3
00:26:36.958 : en:Chapter 4
00:35:56.375 : en:Chapter 5
00:44:32.041 : en:Chapter 6
00:52:49.416 : en:Chapter 7
01:01:22.000 : en:Chapter 8
01:12:10.916 : en:Chapter 9
01:20:04.666 : en:Chapter 10
01:28:57.250 : en:Chapter 11
01:39:45.958 : en:Chapter 12
pb.wtf



Скачать Жажда смерти через торрент https://b.radikal.ru/b30/1807/0f/e007de5f85e4.png Скачать, смотреть онлайн Жажда смерти бесплантно в хорошем качестве Описание: Пол Керси - хирург, привыкший вытаскивать людей с того света после криминальных разборок. Но после того, как его жена и дочь ... 10 10 2
Торрент: Зарегистрирован [2018-07-10 17:24] · скачан: 125 раз
Статус: √ проверено
Размер: 9.4 GB
Как cкачать? Как скачать Жажда смерти через торрент | UTorrent

% Раздел Тема Автор DL S | L
Фильмы 2018 [DVDrip, WEB-DLRip, HDrip] (DUB, MVO) [ 1.8 GB ] Жажда смерти / Death Wish [2018 BDRip-AVC] DUB [] - ExKinoRay Enigma2010 Скачать
3 | 0
Фильмы [HD 720p, 1080p] (Хороший звук DUB, MVO) [ 7.15 GB ] Жажда смерти / Death Wish [2018 BDRip 720p] DUB [] +2xAVO+MVO [UKR] bober100 Скачать
1 | 0
Фильмы [HD 720p, 1080p] (Хороший звук DUB, MVO) [ 16.39 GB ] Жажда смерти / Death Wish [2018 BDRip 1080p] DUB [] +2xAVO+MVO [UKR] bober100 Скачать
1 | 0
Ultra HD (UHD: 2K, 4K, 8K) — видео сверхвысокой чёткости [ 56.86 GB ] Жажда смерти / Death Wish [2018 UHD BDRemux 2160p] [Dolby Vision] bober100 Скачать
1 | 0
Ultra HD (UHD: 2K, 4K, 8K) — видео сверхвысокой чёткости [ 59.66 GB ] Жажда смерти / Death Wish [2018 UHD Blu-ray 2160p] sheker187 Скачать
1 | 0
Фильмы (Blu-ray, BD-Remux, HDDVD) [ 27.87 GB ] Жажда смерти / Death Wish [2018 BD Remux 1080p] 2xAVO+ bober100 Скачать
1 | 0
Фильмы (HD 720p, 1080p) (48-60 fps) [ 12.5 GB ] Жажда смерти / Death Wish [2018 BDRip 1080p 60 fps] bober100 Скачать
1 | 0

28-11-2019 20:33  

Отключить вcю реклaмy на сайте

    Дорогой пользователь! Огромная просьба, поблагодарите релизера, оцените раздачу и оставьте свои комментарий, если Вы скачали Жажда смерти через торрент бесплатно!
    Комментировать посты могут только пользователи прошедшие не сложную регистрацию
    Показать сообщения:    

    Жажда смерти через торрент
    Скачать бесплатно Жажда смерти
    Жажда смерти скачать торрент
    Жажда смерти смотреть онлайн
    Cкачать фильм Жажда смерти бесплатно
    Жажда смерти скачать торрент в хорошем качестве
    Жажда смерти смотреть онлайн бесплатно в хорошем качестве


    Вы не можете начинать темы
    Вы не можете отвечать на сообщения
    Вы не можете редактировать свои сообщения
    Вы не можете удалять свои сообщения
    Вы не можете голосовать в опросах
    Вы не можете прикреплять файлы к сообщениям
    Вы можете скачивать файлы