Ссылка на приватное зеркало всего за 1$. Внимание количество ограничено!!!

iTunes

iTunes

iTunes

1

iTunes

iTunes

iTunes

WEBRip

iTunes

30
pack

$ от Little Big

ВАЖНО

!!Акция!!

Alien_RageХит недели

RePack

Resident Evil 21

ИГРА 18+

pack

RePack

jed

!!Акция!!

Alien_Rage

RePack

fifa19

RePack

Assassins Creed: Odyssey

RePack

NEED FOR SPEED™ PAYBACK

4 сезон

9 сезон

Бесстыжие 9 сезон

Все сериалы

все сериалы на PB.wtf

RePack

FAR CRY 5
  

Добро пожаловать в Кьюриосити / Welcome to Curiosity (Бен Пикеринг) [2018, триллер, BDRip 720p] MVO ["Синема УС"] pb.wtf

Добро пожаловать в Кьюриосити через торрент pb.wtf

Размер: 4.36 GB | Добавлен: 2 года назад | Торрент скачан:34 раза
Скачать  

10-07-2018 19:16 Добро пожаловать в Кьюриосити Скачать торрент  

Добро пожаловать в Кьюриосити / Welcome to CuriosityГод выпуска: 2018
Страна: Великобритания
Жанр: триллер
Продолжительность: 01:37:00
Перевод: Любительский (многоголосый) | "Синема УС"
Субтитры: отсутствуют

Режиссер: Бен Пикеринг

rating

В ролях:

Амрита Ачария, Джек Эштон, Ричард Блэквуд, Кейси Барнфилд, Брайан Кроучер, Гари Грант, Кристиан Солимено, Терри Суини, Эк Чукву, aО’ар Пали

Описание:

Четыре пересекающиеся истории окружают побег из тюрьмы известного серийного убийцы. Весь город в ужасе, полиция бессильна, и неизвестно, сколько ещё безвинных людей падут от руки кровожадного маньяка.

Качество: BDRip 720p
Формат: MKV

Видео: h.264, 5 978 kb/s, 1280x536
Аудио#1: Русский (AC3, 2 ch, 448 Кбит/с)
скриншот  скриншот  скриншот  

Общее
Уникальный идентификатор : 247745149654995483895550083406375783002 (0xBA61FAF055D4AD638DE8E16D83598A5A)
Полное имя : D:\Welcome.to.curiosity.2018.P.BDRip.72Op_KOSHARA.mkv
Формат : Matroska
Версия формата : Version 2
Размер файла : 4,36 Гбайт
Продолжительность : 1 ч. 37 м.
Режим общего битрейта : Переменный
Общий поток : 6428 Кбит/сек
Дата кодирования : UTC 2018-07-09 17:22:22
Программа кодирования : mkvmerge v8.3.0 ('Over the Horizon') 64bit
Библиотека кодирования : libebml v1.3.1 + libmatroska v1.4.2

Видео
Идентификатор : 1
Формат : AVC
Формат/Информация : Advanced Video Codec
Профиль формата : High@L4.1
Параметр CABAC формата : Да
Параметр RefFrames формата : 4 кадра
Идентификатор кодека : V_MPEG4/ISO/AVC
Продолжительность : 1 ч. 37 м.
Вид битрейта : Переменный
Битрейт : 5978 Кбит/сек
Максимальный битрейт : 6800 Кбит/сек
Ширина : 1280 пикселей
Высота : 536 пикселей
Соотношение сторон : 2,40:1
Режим частоты кадров : Постоянный
Частота кадров : 23,976 (24000/1001) кадра/сек
Стандарт вещания : Component
Цветовое пространство : YUV
Субдискретизация насыщенности : 4:2:0
Битовая глубина : 8 бит
Тип развёртки : Прогрессивная
Бит/(Пиксели*Кадры) : 0.356
Размер потока : 3,97 Гбайт (91%)
Default : Да
Forced : Нет
Цветовой диапазон : Limited
Основные цвета : BT.709
Характеристики трансфера : BT.709
Коэффициенты матрицы : BT.709

Аудио
Идентификатор : 2
Формат : AC-3
Формат/Информация : Audio Coding 3
Расширение режима : CM (complete main)
Параметр Endianness формата : Big
Идентификатор кодека : A_AC3
Продолжительность : 1 ч. 37 м.
Вид битрейта : Постоянный
Битрейт : 448 Кбит/сек
Каналы : 2 канала
Расположение каналов : Front: L R
Частота : 48,0 КГц
Частота кадров : 31,250 кадров/сек (1536 spf)
Метод сжатия : С потерями
Размер потока : 311 Мбайт (7%)
Default : Да
Forced : Нет

pb.wtf



Скачать Добро пожаловать в Кьюриосити через торрент https://img11.lostpic.net/2018/07/10/c363d54514e3da6f99d798ae0524fa93.jpg Скачать фильм Добро пожаловать в Кьюриосити через торрент бесплантно в хорошем качестве Описание: Четыре пересекающиеся истории окружают побег из тюрьмы известного серийного убийцы. Весь город в ужасе, полиция бессильна, и ... 7.8 10 4
Торрент: Зарегистрирован [2018-07-10 19:16] · скачан: 34 раз
Статус: # сомнительно
Размер: 4.36 GB
Как cкачать? Как скачать Добро пожаловать в Кьюриосити через торрент | qTorrent

% Раздел Тема Автор DL S | L
T Фильмы (мультфильмы) cо спонсором показа (Новинки AVI/MKV) [ 1.37 GB ] Добро пожаловать в Кьюриосити / Welcome to Curiosity [2018 HDRip] MVO ["Синема УС"] bober100 Скачать
1 | 0

28-11-2019 20:33  

Отключить всю рекламу на сайте

    Дорогой пользователь! Огромная просьба, поблагодарите релизера, оцените раздачу и оставьте свои комментарий, если Вы скачали Добро пожаловать в Кьюриосити через торрент бесплатно! Внесите свою лепту в развитие PiratBit!
    Комментировать посты могут только пользователи прошедшие не сложную регистрацию
    Показать сообщения:    

    Добро пожаловать в Кьюриосити через торрент
    Скачать бесплатно Добро пожаловать в Кьюриосити
    Добро пожаловать в Кьюриосити скачать торрент
    Добро пожаловать в Кьюриосити смотреть онлайн
    Cкачать фильм Добро пожаловать в Кьюриосити бесплатно
    Добро пожаловать в Кьюриосити скачать торрент в хорошем качестве
    Добро пожаловать в Кьюриосити смотреть онлайн бесплатно в хорошем качестве


    Вы не можете начинать темы
    Вы не можете отвечать на сообщения
    Вы не можете редактировать свои сообщения
    Вы не можете удалять свои сообщения
    Вы не можете голосовать в опросах
    Вы не можете прикреплять файлы к сообщениям
    Вы можете скачивать файлы