новый адрес
Ссылка на приватное зеркало всего за 1$. Внимание количество ограничено!!!

iTunes

1+1

iTunes

мы

WEB-DL

1

iTunes

Чернобыль

iTunes

Ральф против интернета

Лицензия

ПШазам

Лицензия

Оно 2

Лицензия

30
pack

Вам бонус

ВАЖНО

!!Акция!!

Alien_RageХит недели

RePack

Resident Evil 21

ИГРА 18+

pack

RePack

jed

!!Акция!!

Alien_Rage

RePack

fifa19

RePack

Assassins Creed: Odyssey

RePack

NEED FOR SPEED™ PAYBACK

3 сезон

9 сезон

Бесстыжие 9 сезон

Все сериалы

все сериалы на PB.wtf

RePack

FAR CRY 5
Ребята, катастрофически не хватает 1900р. для оплаты серверов за Октябрь (всвязи с блокировками трафик упал в 3 раза), 1-2р., выручайте.
  

Рэмпейдж / Rampage (Брэд Пейтон) [2018, Фантастика, боевик, приключения, BDRip-AVC] DUB [Лицензия], [Ukr DUB] - ExKinoRay pb.wtf

Рэмпейдж через торрент pb.wtf

Раздают: 1 [ 0 KB/s ]
Размер: 2.58 GB | Добавлен: 1 год 4 мес. назад | Торрент скачан:252 раза
Скачать  

10-07-2018 21:36 Рэмпейдж Скачать торрент  

Информация о фильме
Название: Рэмпейдж
Оригинальное название: Rampage
Год выхода: 2018
Жанр: фантастика, боевик, приключения
Режиссер: Брэд Пейтон
В ролях: Дуэйн Джонсон, Наоми Харрис, Малин Акерман, Джеффри Дин Морган, Джейк Лэси, Джо Манганьелло, Марли Шелтон, П.Дж. Бирн, Деметриус Гросс, Джек Куэйд

Описание:
Приматолог Дэвис Окойи предпочитает держаться подальше от людей и дружит с Джорджем, удивительно умным самцом гориллы, которого он воспитывал с самого рождения. Но вышедший из-под контроля генетический эксперимент превращает послушную обезьяну в яростного монстра. Более того, вскоре обнаруживается, что существуют и другие модифицированные хищники. Пока свежесозданные чудовища превращают в руины Северную Америку, стирая с лица Земли все, что попадается у них на пути, Окойи вместе с опальным генным инженером пытается изобрести антидот, прорываясь по бесконечному полю боя не только, чтобы предотвратить глобальную катастрофу, но и спасти бесстрашное существо, которое когда-то было его другом.

rating

Страна: США
Продолжительность: 01:47:15
Перевод: Дублированный | Лицензия

Кодек: H.264
Качество: BDRip-AVC
Видео: MPEG-4 AVC, 1024x426 (2.40:1), 23.976 fps, ~2362 kbps avg, 0.226 bit/pixel
Звук 1: 48 kHz, AC3 Dolby Digital, 5/1 ch, ~448 kbps avg
Звук 2: 48 kHz, AC3 Dolby Digital, 2/0 ch, ~192 kbps avg
Звук 3: 48 kHz, AC3 Dolby Digital, 5/1 ch, ~448 kbps avg
Субтитры: Русские (Forced, Full), английские

Без какой-либо рекламы!
General
Unique ID : 232754529963986542389797429190453644975 (0xAF1AE4533A166C3087FE2CE772384EAF)
Complete name : D:\Rampage.2018.BDRip.AVC.ExKinoRay.mkv
Format : Matroska
Format version : Version 2
File size : 2.58 GiB
Duration : 1 h 47 min
Overall bit rate : 3 446 kb/s
Movie name : Rampage 2018 from ExKinoRay
Encoded date : UTC 2018-07-10 20:46:55
Writing application : mkvmerge v5.6.0 ('Kenya Kane') built on May 27 2012 16:44:04
Writing library : libebml v1.2.3 + libmatroska v1.3.0

Video
ID : 1
Format : AVC
Format/Info : Advanced Video Codec
Format profile : High@L4.1
Format settings, CABAC : Yes
Format settings, ReFrames : 13 frames
Codec ID : V_MPEG4/ISO/AVC
Duration : 1 h 47 min
Bit rate : 2 362 kb/s
Width : 1 024 pixels
Height : 426 pixels
Display aspect ratio : 2.40:1
Frame rate mode : Constant
Frame rate : 23.976 (23976/1000) FPS
Color space : YUV
Chroma subsampling : 4:2:0
Bit depth : 8 bits
Scan type : Progressive
Bits/(Pixel*Frame) : 0.226
Stream size : 1.72 GiB (66%)
Title : Enigma
Writing library : x264 core 152 r2851 ba24899
Encoding settings : cabac=1 / ref=13 / deblock=1:-2:-2 / analyse=0x3:0x113 / me=umh / subme=11 / psy=1 / psy_rd=1.00:0.05 / mixed_ref=1 / me_range=32 / chroma_me=1 / trellis=2 / 8x8dct=1 / cqm=0 / deadzone=21,11 / fast_pskip=0 / chroma_qp_offset=-3 / threads=12 / lookahead_threads=3 / sliced_threads=0 / nr=0 / decimate=0 / interlaced=0 / bluray_compat=0 / constrained_intra=0 / bframes=14 / b_pyramid=2 / b_adapt=2 / b_bias=0 / direct=3 / weightb=1 / open_gop=0 / weightp=2 / keyint=240 / keyint_min=23 / scenecut=40 / intra_refresh=0 / rc_lookahead=40 / rc=2pass / mbtree=0 / bitrate=2362 / ratetol=1.0 / qcomp=0.60 / qpmin=0 / qpmax=51 / qpstep=4 / cplxblur=20.0 / qblur=0.5 / vbv_maxrate=50000 / vbv_bufsize=62500 / nal_hrd=none / filler=0 / ip_ratio=1.30 / pb_ratio=1.20 / aq=3:0.90
Language : English
Default : Yes
Forced : No
Color range : Limited
Color primaries : BT.709
Transfer characteristics : BT.709
Matrix coefficients : BT.709

Audio #1
ID : 2
Format : AC-3
Format/Info : Audio Coding 3
Mode extension : CM (complete main)
Format settings, Endianness : Big
Codec ID : A_AC3
Duration : 1 h 47 min
Bit rate mode : Constant
Bit rate : 448 kb/s
Channel(s) : 6 channels
Channel positions : Front: L C R, Side: L R, LFE
Sampling rate : 48.0 kHz
Frame rate : 31.250 FPS (1536 spf)
Compression mode : Lossy
Stream size : 344 MiB (13%)
Title : Лицензия
Language : Russian
Default : Yes
Forced : No

Audio #2
ID : 3
Format : AC-3
Format/Info : Audio Coding 3
Mode extension : CM (complete main)
Format settings, Endianness : Big
Codec ID : A_AC3
Duration : 1 h 47 min
Bit rate mode : Constant
Bit rate : 192 kb/s
Channel(s) : 2 channels
Channel positions : Front: L R
Sampling rate : 48.0 kHz
Frame rate : 31.250 FPS (1536 spf)
Compression mode : Lossy
Stream size : 147 MiB (6%)
Title : Dub
Language : Ukrainian
Default : No
Forced : No
Statistics Tags Issue : mkvmerge v23.0.0 ('The Bride Said No') 64-bit 2018-07-04 12:46:30 / mkvmerge v5.6.0 ('Kenya Kane') built on May 27 2012 16:44:04 2018-07-10 20:46:55
FromStats_BitRate : 192000
FromStats_Duration : 01:47:15.136000000
FromStats_FrameCount : 201098
FromStats_StreamSize : 154443264

Audio #3
ID : 4
Format : AC-3
Format/Info : Audio Coding 3
Mode extension : CM (complete main)
Format settings, Endianness : Big
Codec ID : A_AC3
Duration : 1 h 47 min
Bit rate mode : Constant
Bit rate : 448 kb/s
Channel(s) : 6 channels
Channel positions : Front: L C R, Side: L R, LFE
Sampling rate : 48.0 kHz
Frame rate : 31.250 FPS (1536 spf)
Compression mode : Lossy
Stream size : 344 MiB (13%)
Language : English
Default : No
Forced : No
Statistics Tags Issue : mkvmerge v23.0.0 ('The Bride Said No') 64-bit 2018-07-04 12:46:30 / mkvmerge v5.6.0 ('Kenya Kane') built on May 27 2012 16:44:04 2018-07-10 20:46:55
FromStats_BitRate : 448000
FromStats_Duration : 01:47:16.128000000
FromStats_FrameCount : 201129
FromStats_StreamSize : 360423168

Text #1
ID : 5
Format : UTF-8
Codec ID : S_TEXT/UTF8
Codec ID/Info : UTF-8 Plain Text
Title : Forced
Language : Russian
Default : Yes
Forced : Yes
Statistics Tags Issue : mkvmerge v23.0.0 ('The Bride Said No') 64-bit 2018-07-04 12:46:30 / mkvmerge v5.6.0 ('Kenya Kane') built on May 27 2012 16:44:04 2018-07-10 20:46:55
FromStats_BitRate : 2
FromStats_Duration : 01:32:00.812000000
FromStats_FrameCount : 31
FromStats_StreamSize : 1791

Text #2
ID : 6
Format : UTF-8
Codec ID : S_TEXT/UTF8
Codec ID/Info : UTF-8 Plain Text
Title : Full
Language : Russian
Default : No
Forced : No
Statistics Tags Issue : mkvmerge v23.0.0 ('The Bride Said No') 64-bit 2018-07-04 12:46:30 / mkvmerge v5.6.0 ('Kenya Kane') built on May 27 2012 16:44:04 2018-07-10 20:46:55
FromStats_BitRate : 83
FromStats_Duration : 01:46:43.570000000
FromStats_FrameCount : 1292
FromStats_StreamSize : 66543

Text #3
ID : 7
Format : UTF-8
Codec ID : S_TEXT/UTF8
Codec ID/Info : UTF-8 Plain Text
Language : English
Default : No
Forced : No
Statistics Tags Issue : mkvmerge v23.0.0 ('The Bride Said No') 64-bit 2018-07-04 12:46:30 / mkvmerge v5.6.0 ('Kenya Kane') built on May 27 2012 16:44:04 2018-07-10 20:46:55
FromStats_BitRate : 56
FromStats_Duration : 01:37:55.269000000
FromStats_FrameCount : 1352
FromStats_StreamSize : 41583

Menu
00:00:00.000 : en:00:00:00.000
00:12:58.528 : en:00:12:58.528
00:19:56.278 : en:00:19:56.278
00:29:53.291 : en:00:29:53.291
00:40:35.391 : en:00:40:35.391
00:49:10.906 : en:00:49:10.906
01:02:38.171 : en:01:02:38.171
01:10:37.650 : en:01:10:37.650
01:20:10.472 : en:01:20:10.472
01:29:23.608 : en:01:29:23.608
01:39:43.186 : en:01:39:43.186
Релиз от:

Автор релиза: pb.wtf



Скачать Рэмпейдж через торрент https://i105.fastpic.ru/big/2018/0611/73/a9dc1b4dadf03928cf822041bd3b2c73.jpg Скачать фильм Рэмпейдж через торрент бесплантно в хорошем качестве Описание: Приматолог Дэвис Окойи предпочитает держаться подальше от людей и дружит с Джорджем, удивительно умным самцом гориллы, которого ... 10 10 3
Info! Золотая раздача, скачанное не засчитывается.
Торрент: Зарегистрирован [2018-07-10 21:36] · скачан: 252 раз
Статус: √ проверено
Размер: 2.58 GB
Как cкачать? Как скачать Рэмпейдж через торрент | qTorrent

% Раздел Тема Автор DL S | L
Фильмы 2018 [DVDrip, WEB-DLRip, HDrip] (DUB, MVO) [ 2.32 GB ] Рэмпейдж / Rampage [2018 WEB-DLRip-AVC] [Ukr DUB] - ExKinoRay Enigma2010 Скачать
2 | 1

28-11-2019 20:33  

Отключить всю рекламу на сайте

    Дорогой пользователь! Огромная просьба, поблагодарите релизера, оцените раздачу и оставьте свои комментарий, если Вы скачали Рэмпейдж через торрент бесплатно! Внесите свою лепту в развитие PiratBit!
    Комментировать посты могут только пользователи прошедшие не сложную регистрацию
    Показать сообщения:    

    Рэмпейдж через торрент
    Скачать бесплатно Рэмпейдж
    Рэмпейдж скачать торрент
    Рэмпейдж смотреть онлайн
    Cкачать фильм Рэмпейдж бесплатно
    Рэмпейдж скачать торрент в хорошем качестве
    Рэмпейдж смотреть онлайн бесплатно в хорошем качестве


    Вы не можете начинать темы
    Вы не можете отвечать на сообщения
    Вы не можете редактировать свои сообщения
    Вы не можете удалять свои сообщения
    Вы не можете голосовать в опросах
    Вы не можете прикреплять файлы к сообщениям
    Вы можете скачивать файлы