Ссылка на приватное зеркало нашего сайта всего за 1$. Внимание количество ограничено!!!

2 сезон

iTunes

1 сезон

1

2 сезон

2 сезон

iTunes

1 сезон

RePack

30

Новинка

ВАЖНО

ИГРА 18+

pack

RePack

MK11
pack

Забери бонус

RePack

jed

!!Акция!!

Alien_Rage

RePack

fifa19

RePack

Assassins Creed: Odyssey

RePack

NEED FOR SPEED™ PAYBACK

4 сезон

9 сезон

Бесстыжие 9 сезон

Все сериалы

все сериалы на PB.wtf

RePack

FAR CRY 5
  

Рэмпейдж / Rampage (Брэд Пейтон) [2018, фантастика, боевик, приключения, BD Remux 1080p] DUB (rus, ukr) [Лицензия] pb.wtf

Рэмпейдж через торрент pb.wtf

Размер: 21.05 GB | Добавлен: 2 года 4 мес. назад | Торрент скачан:80 раз
Скачать  

11-07-2018 01:55 Рэмпейдж Скачать торрент  

Рэмпейдж / Rampage
««Больше, чем скала»»
Год выпуска: 2018
Страна: США
Жанр: фантастика, боевик, приключения
Продолжительность: 01:47:16
Перевод: Дублированный | Лицензия
Субтитры: Русские (forced, full), английские

Режиссер: Брэд Пейтон

rating

В ролях:

Дуэйн Джонсон (Davis Okoye), Наоми Харрис (Dr. Kate Caldwell), Малин Акерман (Claire Wyden), Джеффри Дин Морган (Harvey Russell), Джейк Лэси (Brett Wyden), Джо Манганьелло (Burke), Марли Шелтон (Dr. Kerry Atkins), П.Дж. Бирн (Nelson), Деметриус Гросс (Colonel Blake), Джек Куэйд (Connor), Бриэнн Хилл (Amy), Мэтт Джералд (Zammit)
Описание:

Приматолог Дэвис Окойи предпочитает держаться подальше от людей и дружит с Джорджем, удивительно умным альфа-самцом - гориллой, которого он воспитывал с самого рождения. Но вышедший из-под контроля генетический эксперимент превращает послушную обезьяну в яростного монстра. Более того, вскоре обнаруживается, что существуют и другие модифицированные хищники. Пока свежесозданные чудовища превращают в руины Северную Америку, стирая с лица Земли все, что попадается у них на пути, Окойи вместе с опальным генным инженером пытается изобрести антидот, прорываясь по бесконечному полю боя не только, чтобы предотвратить глобальную катастрофу, но и спасти бесстрашное существо, которое когда-то было его другом.

Качество: BD Remux 1080p
Формат: MKV

Видео: MPEG-4 AVC, 1920x1080, 23.7 Мbit/s, 23.976 fps
Аудио#1: 48 kHz, AC3, 5.1, 448 Kbps | Дублированный | RUS |
Аудио#2: 48 kHz, AC3, 2.0, 192 Kbps | Дублированный | UKR |
Аудио#3: 48 kHz, TrueHD, 7.1, 3279 Kbps | Оригинал | ENG |
Аудио#4: 48 kHz, AC3, 5.1, 448 Kbps | Оригинал | ENG |
скриншот  скриншот  скриншот  скриншот  скриншот  

General
Unique ID : 150878311653926698676775548512395120305 (0x71821B18270DB360E26C63523DB4CEB1)
Complete name : D:Video111Rampage.2018.BDREMUX.1080p.ExKinoRay.mkv
Format : Matroska
Format version : Version 4 / Version 2
File size : 21.0 GiB
Duration : 1 h 47 min
Overall bit rate mode : Variable
Overall bit rate : 28.0 Mb/s
Movie name : Rampage 2018 from ExKinoRay
Encoded date : UTC 2018-07-04 12:46:30
Writing application : mkvmerge v23.0.0 ('The Bride Said No') 64-bit
Writing library : libebml v1.3.6 + libmatroska v1.4.9

Video
ID : 1
Format : AVC
Format/Info : Advanced Video Codec
Format profile : High@L4.1
Format settings : CABAC / 4 Ref Frames
Format settings, CABAC : Yes
Format settings, ReFrames : 4 frames
Codec ID : V_MPEG4/ISO/AVC
Duration : 1 h 47 min
Bit rate mode : Variable
Bit rate : 23.7 Mb/s
Maximum bit rate : 28.0 Mb/s
Width : 1 920 pixels
Height : 1 080 pixels
Display aspect ratio : 16:9
Frame rate mode : Constant
Frame rate : 23.976 (24000/1001) FPS
Color space : YUV
Chroma subsampling : 4:2:0
Bit depth : 8 bits
Scan type : Progressive
Bits/(Pixel*Frame) : 0.476
Stream size : 17.7 GiB (84%)
Language : English
Default : Yes
Forced : No

Audio #1
ID : 2
Format : AC-3
Format/Info : Audio Coding 3
Codec ID : A_AC3
Duration : 1 h 47 min
Bit rate mode : Constant
Bit rate : 384 kb/s
Channel(s) : 6 channels
Channel positions : Front: L C R, Side: L R, LFE
Sampling rate : 48.0 kHz
Frame rate : 31.250 FPS (1536 SPF)
Bit depth : 16 bits
Compression mode : Lossy
Stream size : 295 MiB (1%)
Title : iTunes
Language : Russian
Service kind : Complete Main
Default : Yes
Forced : Yes

Audio #2
ID : 3
Format : AC-3
Format/Info : Audio Coding 3
Codec ID : A_AC3
Duration : 1 h 47 min
Bit rate mode : Constant
Bit rate : 192 kb/s
Channel(s) : 2 channels
Channel positions : Front: L R
Sampling rate : 48.0 kHz
Frame rate : 31.250 FPS (1536 SPF)
Bit depth : 16 bits
Compression mode : Lossy
Stream size : 147 MiB (1%)
Title : Dub
Language : Ukrainian
Service kind : Complete Main
Default : No
Forced : No

Audio #3
ID : 4
Format : TrueHD
Format profile : TrueHD+Atmos / TrueHD
Codec ID : A_TRUEHD
Duration : 1 h 47 min
Bit rate mode : Variable
Bit rate : 3 279 kb/s
Maximum bit rate : 5 205 kb/s
Channel(s) : Object Based / 8 channels
Channel positions : Object Based / Front: L C R, Side: L R, Back: L R, LFE
Sampling rate : / 48.0 kHz
Frame rate : 1 200.000 FPS (40 SPF)
Compression mode : Lossless
Stream size : 2.46 GiB (12%)
Title : Original
Language : English
Default : No
Forced : No

Audio #4
ID : 5
Format : AC-3
Format/Info : Audio Coding 3
Codec ID : A_AC3
Duration : 1 h 47 min
Bit rate mode : Constant
Bit rate : 448 kb/s
Channel(s) : 6 channels
Channel positions : Front: L C R, Side: L R, LFE
Sampling rate : 48.0 kHz
Frame rate : 31.250 FPS (1536 SPF)
Bit depth : 16 bits
Compression mode : Lossy
Stream size : 344 MiB (2%)
Language : English
Service kind : Complete Main
Default : No
Forced : No

Text #1
ID : 6
Format : UTF-8
Codec ID : S_TEXT/UTF8
Codec ID/Info : UTF-8 Plain Text
Duration : 1 h 32 min
Bit rate : 2 b/s
Count of elements : 31
Stream size : 1.75 KiB (0%)
Title : Forced
Language : Russian
Default : Yes
Forced : Yes

Text #2
ID : 7
Format : UTF-8
Codec ID : S_TEXT/UTF8
Codec ID/Info : UTF-8 Plain Text
Duration : 1 h 46 min
Bit rate : 83 b/s
Count of elements : 1292
Stream size : 65.0 KiB (0%)
Title : Full
Language : Russian
Default : No
Forced : No

Text #3
ID : 8
Format : UTF-8
Codec ID : S_TEXT/UTF8
Codec ID/Info : UTF-8 Plain Text
Duration : 1 h 37 min
Bit rate : 56 b/s
Count of elements : 1352
Stream size : 40.6 KiB (0%)
Language : English
Default : No
Forced : No

Menu
00:00:00.000 : en:00:00:00.000
00:12:58.528 : en:00:12:58.528
00:19:56.278 : en:00:19:56.278
00:29:53.291 : en:00:29:53.291
00:40:35.391 : en:00:40:35.391
00:49:10.906 : en:00:49:10.906
01:02:38.171 : en:01:02:38.171
01:10:37.650 : en:01:10:37.650
01:20:10.472 : en:01:20:10.472
01:29:23.608 : en:01:29:23.608
01:39:43.186 : en:01:39:43.186

pb.wtf



Скачать Рэмпейдж через торрент http://lostpix.com/img/2018-07/01/g9fh4dcri6lh8jhd19gm6acaq.jpg Скачать фильм Рэмпейдж через торрент бесплантно в хорошем качестве Описание: Приматолог Дэвис Окойи предпочитает держаться подальше от людей и дружит с Джорджем, удивительно умным альфа-самцом - гориллой, ... 10 10 6
Торрент: Зарегистрирован [2018-07-11 01:55] · скачан: 80 раз
Статус: √ проверено
Размер: 21.05 GB
Как cкачать? Как скачать Рэмпейдж через торрент | qTorrent

% Раздел Тема Автор DL S | L
Фильмы (HD 720p, 1080p) (48-60 fps) [ 3.66 GB ] Рэмпейдж / Rampage [2018 BDRip 720p / 60 FPS ] 60fps от R.G. HD-Films slaventi-69 Скачать
1 | 0
Ultra HD (UHD: 2K, 4K, 8K) — видео сверхвысокой чёткости [ 44.99 GB ] Рэмпейдж / Rampage [2018 UHD Remux 2160p] [Dolby Vision TV] DUB [] bober100 Скачать
1 | 0
Фильмы (Blu-ray, BD-Remux, HDDVD) [ 23.18 GB ] Рэмпейдж / Rampage [2018 Blu-Ray Remux 1080p] [] killermax2013 Скачать
1 | 0
Фильмы (Blu-ray, BD-Remux, HDDVD) [ 36.23 GB ] Рэмпейдж / Rampage [2018 Blu-ray EUR 1080p] DUB [] bober100 Скачать
1 | 0
Фильмы (HD 720p, 1080p) (48-60 fps) [ 9.76 GB ] Рэмпейдж / Rampage [2018 BDRip 1080p 60 fps] DUB [] bober100 Скачать
2 | 0
Фильмы 2018 [DVDrip, WEB-DLRip, HDrip] (DUB, MVO) [ 1.46 GB ] Рэмпейдж / Rampage [2018 BDRip] - [] Twi7ter Скачать
1 | 0
3D Фильмы [ 37.29 GB ] Рэмпейдж / Rampage [2018 Blu-Ray EUR 1080p] [3D] - [] sheker187 Скачать
1 | 0

28-11-2019 20:33  

Отключить всю рекламу на сайте

    Дорогой пользователь! Огромная просьба, поблагодарите релизера, оцените раздачу и оставьте свои комментарий, если Вы скачали Рэмпейдж через торрент бесплатно! Внесите свою лепту в развитие PiratBit!
    Комментировать посты могут только пользователи прошедшие не сложную регистрацию
    Показать сообщения:    

    Рэмпейдж через торрент
    Скачать бесплатно Рэмпейдж
    Рэмпейдж скачать торрент
    Рэмпейдж смотреть онлайн
    Cкачать фильм Рэмпейдж бесплатно
    Рэмпейдж скачать торрент в хорошем качестве
    Рэмпейдж смотреть онлайн бесплатно в хорошем качестве


    Вы не можете начинать темы
    Вы не можете отвечать на сообщения
    Вы не можете редактировать свои сообщения
    Вы не можете удалять свои сообщения
    Вы не можете голосовать в опросах
    Вы не можете прикреплять файлы к сообщениям
    Вы можете скачивать файлы