Ссылка на приватное зеркало всего за 1$. Внимание количество ограничено!!!

OK

1+1

iTunes

мы

OK

1

WEB-DLRip

Джокер

Пифагор

Ведьмак / The Witcher сериал

iTunes

ПШазам

ОК

Оно 2

iTunes

30
pack

Вам бонус

ВАЖНО

!!Акция!!

Alien_RageХит недели

RePack

Resident Evil 21

ИГРА 18+

pack

RePack

jed

RePack

fifa19

RePack

Assassins Creed: Odyssey

RePack

NEED FOR SPEED™ PAYBACK

4 сезон

9 сезон

Бесстыжие 9 сезон

Все сериалы

все сериалы на PB.wtf

RePack

FAR CRY 5
  

На вкус и цвет / Les goûts et les couleurs / To each her own (Мириам Азиза) [2018, комедия, WEB-DL 720p] MVO ["Синема УС"] pb.wtf

На вкус и цвет через торрент pb.wtf

Размер: 3.33 GB | Добавлен: 1 год 6 мес. назад | Торрент скачан:13 раз
Скачать  

11-07-2018 06:06 На вкус и цвет Скачать торрент  

На вкус и цвет / Les goûts et les couleurs / To each her own
Год выпуска: 2018
Страна: Франция
Жанр: комедия
Продолжительность: 01:38:06
Перевод: Любительский (многоголосый) | "Синема УС"
Субтитры: отсутствуют

Режиссер: Мириам Азиза

rating

В ролях:

Сара Штерн, Жан-Кристоф Фолли, Джулия Пьятон, Катрин Жакоб, Ришар Берри, Арье Эльмале, Клементин Пуадац, Стефан Дебак, Дэвид Ури, Лайонел Лингельсер

Описание:

Симона пытается рассказать своей религиозной еврейской семье, что она лесбиянка. Но внезапно понимает, что ее тянет к повару ее любимого ресторана.

Качество: WEB-DL 720p
Формат: MKV

Видео: h.264, 4 469 kb/s, 1280x690
Аудио#1: Русский, (AC3, 2 ch, 384 Кбит/с)
скриншот  скриншот  скриншот  

Общее
Уникальный идентификатор : 249175144519002589937610055037969918674 (0xBB7563210579C23F9ECB3D23A4C66AD2)
Полное имя : D:\To.each.her.own.2018.P.WEB-DL.72Op_KOSHARA.mkv
Формат : Matroska
Версия формата : Version 2
Размер файла : 3,33 Гбайт
Продолжительность : 1 ч. 38 м.
Режим общего битрейта : Переменный
Общий поток : 4855 Кбит/сек
Дата кодирования : UTC 2018-07-09 16:07:52
Программа кодирования : mkvmerge v8.3.0 ('Over the Horizon') 64bit
Библиотека кодирования : libebml v1.3.1 + libmatroska v1.4.2

Видео
Идентификатор : 1
Формат : AVC
Формат/Информация : Advanced Video Codec
Профиль формата : High@L4.1
Параметр CABAC формата : Да
Параметр RefFrames формата : 4 кадра
Идентификатор кодека : V_MPEG4/ISO/AVC
Продолжительность : 1 ч. 38 м.
Вид битрейта : Переменный
Битрейт : 4469 Кбит/сек
Максимальный битрейт : 5000 Кбит/сек
Ширина : 1280 пикселей
Высота : 690 пикселей
Соотношение сторон : 1,85:1
Режим частоты кадров : Постоянный
Частота кадров : 23,976 (24000/1001) кадра/сек
Стандарт вещания : Component
Цветовое пространство : YUV
Субдискретизация насыщенности : 4:2:0
Битовая глубина : 8 бит
Тип развёртки : Прогрессивная
Бит/(Пиксели*Кадры) : 0.207
Размер потока : 3,00 Гбайт (90%)
Default : Да
Forced : Нет
Цветовой диапазон : Limited
Основные цвета : BT.709
Характеристики трансфера : BT.709
Коэффициенты матрицы : BT.709

Аудио
Идентификатор : 2
Формат : AC-3
Формат/Информация : Audio Coding 3
Расширение режима : CM (complete main)
Параметр Endianness формата : Big
Идентификатор кодека : A_AC3
Продолжительность : 1 ч. 38 м.
Вид битрейта : Постоянный
Битрейт : 384 Кбит/сек
Каналы : 2 канала
Расположение каналов : Front: L R
Частота : 48,0 КГц
Частота кадров : 31,250 кадров/сек (1536 spf)
Метод сжатия : С потерями
Размер потока : 269 Мбайт (8%)
Default : Да
Forced : Нет

pb.wtf



Скачать На вкус и цвет через торрент http://i104.fastpic.ru/big/2018/0711/6b/0f8ef2d3296a7f78a8616a3a6fee4f6b.jpg Скачать фильм На вкус и цвет через торрент бесплантно в хорошем качестве Описание: Симона пытается рассказать своей религиозной еврейской семье, что она лесбиянка. Но внезапно понимает, что ее тянет к повару ее ... 10 10 2
Торрент: Зарегистрирован [2018-07-11 06:06] · скачан: 13 раз
Статус: T временная
Размер: 3.33 GB
Как cкачать? Как скачать На вкус и цвет через торрент | qTorrent

% Раздел Тема Автор DL S | L
T Фильмы (мультфильмы) cо спонсором показа (Новинки AVI/MKV) [ 1.37 GB ] На вкус и цвет / Les goûts et les couleurs / To each her own [2018 WEB-DLRip] MVO ["Синема УС"] bober100 Скачать
1 | 0

28-11-2019 20:33  

Отключить всю рекламу на сайте

    Дорогой пользователь! Огромная просьба, поблагодарите релизера, оцените раздачу и оставьте свои комментарий, если Вы скачали На вкус и цвет через торрент бесплатно! Внесите свою лепту в развитие PiratBit!
    Комментировать посты могут только пользователи прошедшие не сложную регистрацию
    Показать сообщения:    

    На вкус и цвет через торрент
    Скачать бесплатно На вкус и цвет
    На вкус и цвет скачать торрент
    На вкус и цвет смотреть онлайн
    Cкачать фильм На вкус и цвет бесплатно
    На вкус и цвет скачать торрент в хорошем качестве
    На вкус и цвет смотреть онлайн бесплатно в хорошем качестве


    Вы не можете начинать темы
    Вы не можете отвечать на сообщения
    Вы не можете редактировать свои сообщения
    Вы не можете удалять свои сообщения
    Вы не можете голосовать в опросах
    Вы не можете прикреплять файлы к сообщениям
    Вы можете скачивать файлы