Ссылка на приватное зеркало нашего сайта всего за 1$. Внимание количество ограничено!!!

2 сезон

iTunes

1 сезон

1

iTunes

iTunes

iTunes

1 сезон

RePack

30

ИГРА 18+

pack

ВАЖНО

!!Акция!!

Alien_RageХит недели

RePack

MK11
pack

Забери бонус

RePack

jed

!!Акция!!

Alien_Rage

RePack

fifa19

RePack

Assassins Creed: Odyssey

RePack

NEED FOR SPEED™ PAYBACK

4 сезон

9 сезон

Бесстыжие 9 сезон

Все сериалы

все сериалы на PB.wtf

RePack

FAR CRY 5
  

Пляж. Жаркий сезон / Сезон: 2 / Серии: 1-16 из 16 (Леонид Белозорович) [2018, Детектив, комедия, WEB-DLRip-AVC] pb.wtf

Пляж. Жаркий сезон через торрент pb.wtf

Размер: 12.27 GB | Добавлен: 2 года 3 мес. назад | Торрент скачан:66 раз
Скачать  

11-07-2018 15:21 Пляж. Жаркий сезон Скачать торрент  

Пляж. Жаркий сезон
Год выпуска: 2018
Страна: Россия
Жанр: Детектив, комедия
Продолжительность: ~ 00:51:00
Субтитры: отсутствуют

Режиссер: Леонид Белозорович



В ролях:

Павел Делонг, Георгий Дронов, Елена Аросьева, Мария Горбань, Юлия Харьковская, Екатерина Сапрыкина, Олег Метелев, Денис Доронин, Сергей Басок, Кристина Курбанова

Описание:

Продолжение сериала "Пляж".
Приятели продолжают патрулировать морское побережье и охранять покой отдыхающих. Но теперь Андрей Гошко берется еще и наладить работу в местном отделении полиции, которое погрязло в коррупции и скандалах. Да и его другу Сергею предстоит борьба с местными казнокрадами, проститутками и подпольными игорными заведениями, которые в сезон отпусков пытаются получить сверхприбыль на отдыха

Качество: WEB-DLRip-AVC
Формат: MKV

Видео: MPEG-4 AVC, ~ 2000 Кбит/с, 1024x576
Аудио: AC3, 2 ch, 192 Кбит/с
скриншот  скриншот  скриншот  

Общее
Уникальный идентификатор : 283938946839927586416086773053542515078 (0xD59CA6EA1B38DCCFA958DF8C5C3A4186)
Полное имя : D:\Пляж-2. Жаркий сезон\Plyazh.Zharkij.sezon.(01.seriya.iz.16).mkv
Формат : Matroska
Версия формата : Version 2
Размер файла : 790 Мбайт
Продолжительность : 50 м. 17 с.
Общий поток : 2195 Кбит/сек
Дата кодирования : UTC 2018-06-30 18:18:11 / UTC 2018-06-30 18:18:11
Программа кодирования : Lavf54.63.104
Библиотека кодирования : Lavf54.63.104 / Lavf54.63.104

Видео
Идентификатор : 1
Формат : AVC
Формат/Информация : Advanced Video Codec
Профиль формата : High@L3.1
Параметр CABAC формата : Да
Параметр RefFrames формата : 2 кадра
Идентификатор кодека : V_MPEG4/ISO/AVC
Продолжительность : 50 м. 17 с.
Битрейт : 2000 Кбит/сек
Ширина : 1024 пикселя
Высота : 576 пикселей
Соотношение сторон : 16:9
Режим частоты кадров : Постоянный
Частота кадров : 25,000 кадров/сек
Цветовое пространство : YUV
Субдискретизация насыщенности : 4:2:0
Битовая глубина : 8 бит
Тип развёртки : Прогрессивная
Бит/(Пиксели*Кадры) : 0.136
Размер потока : 705 Мбайт (89%)
Библиотека кодирования : x264 core 129
Настройки программы : cabac=1 / ref=2 / deblock=1:0:0 / analyse=0x3:0x113 / me=hex / subme=6 / psy=1 / psy_rd=1.00:0.00 / mixed_ref=1 / me_range=16 / chroma_me=1 / trellis=0 / 8x8dct=1 / cqm=0 / deadzone=21,11 / fast_pskip=1 / chroma_qp_offset=-2 / threads=4 / lookahead_threads=1 / sliced_threads=0 / nr=0 / decimate=1 / interlaced=0 / bluray_compat=0 / constrained_intra=0 / bframes=0 / weightp=2 / keyint=250 / keyint_min=25 / scenecut=40 / intra_refresh=0 / rc_lookahead=40 / rc=2pass / mbtree=1 / bitrate=2000 / ratetol=1.0 / qcomp=0.60 / qpmin=10 / qpmax=51 / qpstep=4 / cplxblur=20.0 / qblur=0.5 / ip_ratio=1.41 / aq=1:1.00
Default : Да
Forced : Нет

Аудио
Идентификатор : 2
Формат : AC-3
Формат/Информация : Audio Coding 3
Расширение режима : CM (complete main)
Параметр Endianness формата : Big
Идентификатор кодека : A_AC3
Продолжительность : 50 м. 17 с.
Вид битрейта : Постоянный
Битрейт : 192 Кбит/сек
Каналы : 2 канала
Расположение каналов : Front: L R
Частота : 48,0 КГц
Частота кадров : 31,250 кадров/сек (1536 spf)
Битовая глубина : 16 бит
Метод сжатия : С потерями
Размер потока : 69,1 Мбайт (9%)
Default : Да
Forced : Нет

pb.wtf



Скачать Пляж. Жаркий сезон через торрент http://img11.lostpic.net/2018/06/30/a1fd9685456b7340ffef06901a3c2075.jpg Скачать фильм Пляж. Жаркий сезон через торрент бесплантно в хорошем качестве Описание: Продолжение сериала "Пляж". Приятели продолжают патрулировать морское побережье и охранять покой отдыхающих. Но теперь Андрей ... 10 10 3
Info! Серебряная раздача, засчитывается только 50% скачанного.
Торрент: Зарегистрирован [2018-07-11 15:21] · скачан: 66 раз
Статус: √ проверено
Размер: 12.27 GB
Как cкачать? Как скачать Пляж. Жаркий сезон через торрент | qTorrent

% Раздел Тема Автор DL S | L
Наши сериалы [ 8.7 GB ] Пляж. Жаркий сезон / Сезон: 2 / Серии: 1-16 из 16 [2018 WEBRip] bober100 Скачать
1 | 0
Наши сериалы [ 34.53 GB ] Пляж. Жаркий сезон / Сезон: 2 / Серии: 1-16 из 16 [2018 WEB-DL 1080p] bober100 Скачать
1 | 0

28-11-2019 20:33  

Отключить всю рекламу на сайте

    Дорогой пользователь! Огромная просьба, поблагодарите релизера, оцените раздачу и оставьте свои комментарий, если Вы скачали Пляж. Жаркий сезон через торрент бесплатно! Внесите свою лепту в развитие PiratBit!
    Комментировать посты могут только пользователи прошедшие не сложную регистрацию
    Показать сообщения:    

    Пляж. Жаркий сезон через торрент
    Скачать бесплатно Пляж. Жаркий сезон
    Пляж. Жаркий сезон скачать торрент
    Пляж. Жаркий сезон смотреть онлайн
    Cкачать фильм Пляж. Жаркий сезон бесплатно
    Пляж. Жаркий сезон скачать торрент в хорошем качестве
    Пляж. Жаркий сезон смотреть онлайн бесплатно в хорошем качестве


    Вы не можете начинать темы
    Вы не можете отвечать на сообщения
    Вы не можете редактировать свои сообщения
    Вы не можете удалять свои сообщения
    Вы не можете голосовать в опросах
    Вы не можете прикреплять файлы к сообщениям
    Вы можете скачивать файлы