Ссылка на приватное зеркало всего за 1$. Внимание количество ограничено!!!

OK

1+1

iTunes

мы

OK

1

WEB-DLRip

Джокер

Пифагор

Ведьмак / The Witcher сериал

iTunes

ПШазам

ОК

Оно 2

iTunes

30
pack

Вам бонус

ВАЖНО

!!Акция!!

Alien_RageХит недели

RePack

Resident Evil 21

ИГРА 18+

pack

RePack

jed

RePack

fifa19

RePack

Assassins Creed: Odyssey

RePack

NEED FOR SPEED™ PAYBACK

4 сезон

9 сезон

Бесстыжие 9 сезон

Все сериалы

все сериалы на PB.wtf

RePack

FAR CRY 5
  

Как нигде / Nowhere Else (Дэниал Донай) [2013, ужасы, триллер, драма, BDRip 720p] MVO [официальный звук] pb.wtf

Как нигде через торрент pb.wtf

Размер: 4.42 GB | Добавлен: 1 год 6 мес. назад | Торрент скачан:23 раза
Скачать  

11-07-2018 17:09 Как нигде Скачать торрент  

Как нигде / Nowhere ElseГод выпуска: 2013
Страна: Австралия
Жанр: ужасы, триллер, драма
Продолжительность: 01:36:13
Перевод: Профессиональный многоголосый | официальный звук
Субтитры: отсутствуют

Режиссер: Дэниал Донай

rating

В ролях:

Вернон Уэллс, Рэйчел Мерфи, Марко Дэппер, Дан Балкабан, Уильям Уэнсли, Ди Усон, Джон Рейнольдс, Ловли Кэрролл

Описание:

Группа молодых создателей документальных фильмов отправляются пострелять в Южной австралийской пустыне. Они оказываются в месте под названием «Нигде». То, что происходит там, настолько разрушительно, как ничто другое на земле.

Качество: BDRip 720p
Формат: MKV

Видео: h.264, 6 115 kb/s, 1280x720
Аудио#1: Русский (AC3, 2 ch, 448 Кбит/с)
скриншот  скриншот  скриншот  

Общее
Уникальный идентификатор : 190285461640508792504477432316581922688 (0x8F27A5985273B6A09A8B92AA9A084780)
Полное имя : D:\Nowhere Else.2o13.Pof.BDRip.72Op_KOSHARA.mkv
Формат : Matroska
Версия формата : Version 2
Размер файла : 4,42 Гбайт
Продолжительность : 1 ч. 36 м.
Режим общего битрейта : Переменный
Общий поток : 6565 Кбит/сек
Дата кодирования : UTC 2018-07-08 15:17:16
Программа кодирования : mkvmerge v8.3.0 ('Over the Horizon') 64bit
Библиотека кодирования : libebml v1.3.1 + libmatroska v1.4.2

Видео
Идентификатор : 1
Формат : AVC
Формат/Информация : Advanced Video Codec
Профиль формата : High@L4.1
Параметр CABAC формата : Да
Параметр RefFrames формата : 4 кадра
Идентификатор кодека : V_MPEG4/ISO/AVC
Продолжительность : 1 ч. 36 м.
Вид битрейта : Переменный
Битрейт : 6115 Кбит/сек
Максимальный битрейт : 6900 Кбит/сек
Ширина : 1280 пикселей
Высота : 720 пикселей
Соотношение сторон : 16:9
Режим частоты кадров : Постоянный
Частота кадров : 23,976 (24000/1001) кадра/сек
Стандарт вещания : Component
Цветовое пространство : YUV
Субдискретизация насыщенности : 4:2:0
Битовая глубина : 8 бит
Тип развёртки : Прогрессивная
Бит/(Пиксели*Кадры) : 0.271
Размер потока : 4,03 Гбайт (91%)
Default : Да
Forced : Нет
Цветовой диапазон : Limited
Основные цвета : BT.709
Характеристики трансфера : BT.709
Коэффициенты матрицы : BT.709

Аудио
Идентификатор : 2
Формат : AC-3
Формат/Информация : Audio Coding 3
Расширение режима : CM (complete main)
Параметр Endianness формата : Big
Идентификатор кодека : A_AC3
Продолжительность : 1 ч. 36 м.
Вид битрейта : Постоянный
Битрейт : 448 Кбит/сек
Каналы : 2 канала
Расположение каналов : Front: L R
Частота : 48,0 КГц
Частота кадров : 31,250 кадров/сек (1536 spf)
Метод сжатия : С потерями
Размер потока : 309 Мбайт (7%)
Default : Да
Forced : Нет

pb.wtf



Скачать Как нигде через торрент https://img11.lostpic.net/2018/07/11/e26fb3e68dae504a18bbb4c641793a93.jpg Скачать фильм Как нигде через торрент бесплантно в хорошем качестве Описание: Группа молодых создателей документальных фильмов отправляются пострелять в Южной австралийской пустыне. Они оказываются в месте ... 8.2 10 5
Торрент: Зарегистрирован [2018-07-11 17:09] · скачан: 23 раз
Статус: # сомнительно
Размер: 4.42 GB
Как cкачать? Как скачать Как нигде через торрент | qTorrent

% Раздел Тема Автор DL S | L
T Фильмы (мультфильмы) cо спонсором показа (Новинки AVI/MKV) [ 1.37 GB ] Как нигде / Nowhere Else [2013 HDRip] MVO [официальный звук] bober100 Скачать
1 | 0

28-11-2019 20:33  

Отключить всю рекламу на сайте

    Дорогой пользователь! Огромная просьба, поблагодарите релизера, оцените раздачу и оставьте свои комментарий, если Вы скачали Как нигде через торрент бесплатно! Внесите свою лепту в развитие PiratBit!
    Комментировать посты могут только пользователи прошедшие не сложную регистрацию
    Показать сообщения:    

    Как нигде через торрент
    Скачать бесплатно Как нигде
    Как нигде скачать торрент
    Как нигде смотреть онлайн
    Cкачать фильм Как нигде бесплатно
    Как нигде скачать торрент в хорошем качестве
    Как нигде смотреть онлайн бесплатно в хорошем качестве


    Вы не можете начинать темы
    Вы не можете отвечать на сообщения
    Вы не можете редактировать свои сообщения
    Вы не можете удалять свои сообщения
    Вы не можете голосовать в опросах
    Вы не можете прикреплять файлы к сообщениям
    Вы можете скачивать файлы