Ссылка на приватное зеркало всего за 1$. Внимание количество ограничено!!!

OK

1+1

iTunes

мы

OK

1

WEB-DLRip

Джокер

Пифагор

Ведьмак / The Witcher сериал

iTunes

ПШазам

ОК

Оно 2

iTunes

30
pack

Вам бонус

ВАЖНО

!!Акция!!

Alien_RageХит недели

RePack

Resident Evil 21

ИГРА 18+

pack

RePack

jed

RePack

fifa19

RePack

Assassins Creed: Odyssey

RePack

NEED FOR SPEED™ PAYBACK

4 сезон

9 сезон

Бесстыжие 9 сезон

Все сериалы

все сериалы на PB.wtf

RePack

FAR CRY 5
  

Фобия / Haunted / Hjemsøkt (Карл Кристиан Робе) [2017, ужасы, триллер, драма, криминал, WEB-DL 720p] [DUB с TS] pb.wtf

Фобия через торрент pb.wtf

Размер: 3.05 GB | Добавлен: 1 год 6 мес. назад | Торрент скачан:31 раз
Скачать  

11-07-2018 18:09 Фобия Скачать торрент  

Фобия / Haunted / Hjemsøkt Год выпуска: 2017
Страна: Норвегия
Жанр: ужасы, триллер, драма, криминал
Продолжительность: 01:22:18
Перевод: Дубляж [звук с TS]
Примечание: Присутствует казлино реклама!

Режиссер: Карл Кристиан Робе

В ролях: Синневе Макоди Лунд, Эбба Стинстрап, Кен Ведсегор, Эдуардо Гарсиа-Драгесет, Сесиль Ёстад, Пол Эспен Килстад, Йорунн Кьеллсби, Ола Отнес, Ян Альфред Сандвен, Роберт Скйэрстад

Описание: После смерти отца, Кэтрин получает в наследство семейное поместье. Чтобы забыть о прошлом, она решает его продать. Когда Кэтрин приезжает в полузаброшенный дом, с ней начинают происходить загадочные и необъяснимые события.
Среди местных жителей ходят истории о таинственных исчезновениях и возможных убийствах, связанных с проклятым имением. Ей предстоит выяснить, связаны ли её страхи с этими событиями или это лишь плод её воображения...

--СЭМПЛ--

Качество: WEB-DL 720p
Формат: MKV
Видео: h.264, 4914 kb/s, 1280x574
Аудио: AC3, 2 ch, 384 Кбит/с
General
Unique ID : 235531881601392706513364907624801044055 (0xB131CA5541773536B7983AAEFCBD0657)
Complete name : F:\FoBiya.2018.Dt.WEB-DL.72Op_KOSHARA.mkv
Format : Matroska
Format version : Version 2
File size : 3.05 GiB
Duration : 1 h 22 min
Overall bit rate mode : Variable
Overall bit rate : 5 300 kb/s
Encoded date : UTC 2018-07-11 16:29:47
Writing application : mkvmerge v8.3.0 ('Over the Horizon') 64bit
Writing library : libebml v1.3.1 + libmatroska v1.4.2

Video
ID : 1
Format : AVC
Format/Info : Advanced Video Codec
Format profile : High@L4.1
Format settings : CABAC / 4 Ref Frames
Format settings, CABAC : Yes
Format settings, RefFrames : 4 frames
Codec ID : V_MPEG4/ISO/AVC
Duration : 1 h 22 min
Bit rate mode : Variable
Bit rate : 4 810 kb/s
Maximum bit rate : 5 600 kb/s
Width : 1 280 pixels
Height : 574 pixels
Display aspect ratio : 2.25:1
Frame rate mode : Constant
Frame rate : 23.976 (24000/1001) FPS
Standard : Component
Color space : YUV
Chroma subsampling : 4:2:0
Bit depth : 8 bits
Scan type : Progressive
Bits/(Pixel*Frame) : 0.273
Stream size : 2.77 GiB (91%)
Default : Yes
Forced : No
Color range : Limited
Color primaries : BT.709
Transfer characteristics : BT.709
Matrix coefficients : BT.709

Audio
ID : 2
Format : AC-3
Format/Info : Audio Coding 3
Format settings, Endianness : Big
Codec ID : A_AC3
Duration : 1 h 22 min
Bit rate mode : Constant
Bit rate : 384 kb/s
Channel(s) : 2 channels
Channel positions : Front: L R
Sampling rate : 48.0 kHz
Frame rate : 31.250 FPS (1536 SPF)
Bit depth : 16 bits
Compression mode : Lossy
Stream size : 226 MiB (7%)
Service kind : Complete Main
Default : Yes
Forced : No
скриншот  скриншот  скриншот  
pb.wtf



Скачать Фобия через торрент http://img11.lostpic.net/2018/06/27/5900298aa889203877cd4c216a600279.jpg Скачать фильм Фобия через торрент бесплантно в хорошем качестве Описание: После смерти отца, Кэтрин получает в наследство семейное поместье. Чтобы забыть о прошлом, она решает его продать. Когда Кэтрин ... 10 10 2
Торрент: Зарегистрирован [2018-07-11 18:09] · скачан: 31 раз
Статус: T временная
Размер: 3.05 GB
Как cкачать? Как скачать Фобия через торрент | qTorrent

% Раздел Тема Автор DL S | L
T Фильмы (мультфильмы) cо спонсором показа (Новинки AVI/MKV) [ 3.02 GB ] Фобия / Haunted / Hjemsøkt [2017 WEB-DL 720p] MVO [@MUZOBOZ@] bober100 Скачать
1 | 0
T Фильмы (мультфильмы) cо спонсором показа (Новинки AVI/MKV) [ 1.36 GB ] Фобия / Haunted / Hjemsøkt [2017 WEB-DLRip] MVO [@MUZOBOZ@] bober100 Скачать
1 | 0
T Фильмы (мультфильмы) cо спонсором показа (Новинки AVI/MKV) [ 1.36 GB ] Фобия / Haunted / Hjemsøkt [2017 WEB-DLRip] [DUB с TS] killermax2013 Скачать
1 | 0

28-11-2019 20:33  

Отключить всю рекламу на сайте

    Дорогой пользователь! Огромная просьба, поблагодарите релизера, оцените раздачу и оставьте свои комментарий, если Вы скачали Фобия через торрент бесплатно! Внесите свою лепту в развитие PiratBit!
    Комментировать посты могут только пользователи прошедшие не сложную регистрацию
    Показать сообщения:    

    Фобия через торрент
    Скачать бесплатно Фобия
    Фобия скачать торрент
    Фобия смотреть онлайн
    Cкачать фильм Фобия бесплатно
    Фобия скачать торрент в хорошем качестве
    Фобия смотреть онлайн бесплатно в хорошем качестве


    Вы не можете начинать темы
    Вы не можете отвечать на сообщения
    Вы не можете редактировать свои сообщения
    Вы не можете удалять свои сообщения
    Вы не можете голосовать в опросах
    Вы не можете прикреплять файлы к сообщениям
    Вы можете скачивать файлы