Ссылка на приватное зеркало всего за 1$. Внимание количество ограничено!!!

OK

1+1

iTunes

мы

OK

1

WEB-DLRip

Джокер

Пифагор

Ведьмак / The Witcher сериал

iTunes

ПШазам

ОК

Оно 2

iTunes

30
pack

Вам бонус

ВАЖНО

!!Акция!!

Alien_RageХит недели

RePack

Resident Evil 21

ИГРА 18+

pack

RePack

jed

RePack

fifa19

RePack

Assassins Creed: Odyssey

RePack

NEED FOR SPEED™ PAYBACK

4 сезон

9 сезон

Бесстыжие 9 сезон

Все сериалы

все сериалы на PB.wtf

RePack

FAR CRY 5
  

Пробуждённая / Awakened (Джойселин Энгл, Арнод Ле Льегард Маларон) [2013, триллер, драма, детектив, BDRip 720p] MVO [официальный звук] pb.wtf

Пробуждённая через торрент pb.wtf

Размер: 5.09 GB | Добавлен: 1 год 6 мес. назад | Торрент скачан:22 раза
Скачать  

11-07-2018 19:05 Пробуждённая Скачать торрент  

Пробуждённая / AwakenedГод выпуска: 2013
Страна: США
Жанр: триллер, драма, детектив
Продолжительность: 01:30:05
Перевод: Профессиональный многоголосый | официальный звук
Субтитры: отсутствуют

Режиссер: Джойселин Энгл, Арнод Ле Льегард Маларон

rating

В ролях:

Джулианна Мишель, Стивен Бауэр, Джон Сэвэдж, Эдвард Ферлонг, Сэлли Кёркленд, Стелио Саванте, Брайан Декарт, Шон Стоун, Джойселин Энгл, Эрин Герасимович

Описание:

После четырнадцати лет отсутствия молодая девушка Саманта возвращается в родной город, чтобы выяснить обстоятельства смерти ее матери. Пытаясь разобраться в произошедшем она наталкивается на полное нежелание окружающих помочь ей, в то время как призрак матери начинает неустанно преследовать ее в ночных кошмарах. Тем временем её расследование проливает свет на такие темные секреты родного города, что опасность грозит уже ей самой...

Качество: BDRip 720p
Формат: MKV

Видео: h.264, 5 941 kb/s, 1280x544
Аудио#1: Русский (AC3, 2 ch, 448 Кбит/с)
скриншот  скриншот  скриншот  

Общее
Уникальный идентификатор : 181844660365087483023448526579396955591 (0x88CE01F629D2565C97E039D0BE22CDC7)
Полное имя : D:\Awakened.2013.Pof.BDRip.72Op_KOSHARA.mkv
Формат : Matroska
Версия формата : Version 2
Размер файла : 5,09 Гбайт
Продолжительность : 1 ч. 53 м.
Режим общего битрейта : Переменный
Общий поток : 6391 Кбит/сек
Дата кодирования : UTC 2018-07-08 15:14:15
Программа кодирования : mkvmerge v8.3.0 ('Over the Horizon') 64bit
Библиотека кодирования : libebml v1.3.1 + libmatroska v1.4.2

Видео
Идентификатор : 1
Формат : AVC
Формат/Информация : Advanced Video Codec
Профиль формата : High@L4.1
Параметр CABAC формата : Да
Параметр RefFrames формата : 4 кадра
Идентификатор кодека : V_MPEG4/ISO/AVC
Продолжительность : 1 ч. 53 м.
Вид битрейта : Переменный
Битрейт : 5941 Кбит/сек
Максимальный битрейт : 6800 Кбит/сек
Ширина : 1280 пикселей
Высота : 544 пикселя
Соотношение сторон : 2,35:1
Режим частоты кадров : Постоянный
Частота кадров : 23,976 (24000/1001) кадра/сек
Стандарт вещания : Component
Цветовое пространство : YUV
Субдискретизация насыщенности : 4:2:0
Битовая глубина : 8 бит
Тип развёртки : Прогрессивная
Бит/(Пиксели*Кадры) : 0.348
Размер потока : 4,63 Гбайт (91%)
Default : Да
Forced : Нет
Цветовой диапазон : Limited
Основные цвета : BT.709
Характеристики трансфера : BT.709
Коэффициенты матрицы : BT.709

Аудио
Идентификатор : 2
Формат : AC-3
Формат/Информация : Audio Coding 3
Расширение режима : CM (complete main)
Параметр Endianness формата : Big
Идентификатор кодека : A_AC3
Продолжительность : 1 ч. 53 м.
Вид битрейта : Постоянный
Битрейт : 448 Кбит/сек
Каналы : 2 канала
Расположение каналов : Front: L R
Частота : 48,0 КГц
Частота кадров : 31,250 кадров/сек (1536 spf)
Метод сжатия : С потерями
Размер потока : 365 Мбайт (7%)
Default : Да
Forced : Нет

pb.wtf



Скачать Пробуждённая через торрент https://img11.lostpic.net/2018/07/11/4597d230d9b5dd016e563d944867519d.jpg Скачать фильм Пробуждённая через торрент бесплантно в хорошем качестве Описание: После четырнадцати лет отсутствия молодая девушка Саманта возвращается в родной город, чтобы выяснить обстоятельства смерти ее ... 10 10 2
Торрент: Зарегистрирован [2018-07-11 19:05] · скачан: 22 раз
Статус: # сомнительно
Размер: 5.09 GB
Как cкачать? Как скачать Пробуждённая через торрент | qTorrent

% Раздел Тема Автор DL S | L
Лесбиянки [ 1.28 GB ] Erotic Awakening / Эротическое пробуждение [2019 All Girl / LesbianAll SexMade For WomenOral DVDRip] Venom Скачать
2 | 0
Фильмы [HD 720p, 1080p] (Хороший звук DUB, MVO) [ 6.5 GB ] Звёздные войны: Пробуждение силы / Star Wars: Episode VII - The Force Awakens [2015 BDRip-HEVC 1080p ] [Локализованная версия] DUB [] bober100 Скачать
2 | 0
Фильмы [HD 720p, 1080p] (Хороший звук DUB, MVO) [ 8.01 GB ] Звездные войны: Пробуждение силы / Star Wars: Episode VII - The Force Awakens [ BDRip 720p Dub MVO 2 x AVO] от ExKinoRay morfyi Скачать
1 | 0
T Фильмы (мультфильмы) cо спонсором показа (Новинки AVI/MKV) [ 1.37 GB ] Легенда о безымянном: пробуждение силы / Legend of the Nameless awakening of power [2018 WEB-DLRip] MVO [КОЛОБОК] bober100 Скачать
1 | 0
T Фильмы (мультфильмы) cо спонсором показа (Новинки AVI/MKV) [ 1.46 GB ] Пробуждённая / Awakened [2013 HDRip] MVO [официальный звук] bober100 Скачать
1 | 0
Фильмы 2017 [DVDrip, WEB-DLRip, HDrip] (DUB, MVO) [ 1.45 GB ] Ужас Амитивилля: Пробуждение / Amityville: The Awakening [2017 BDRip] - [] Twi7ter Скачать
2 | 0
Фильмы (WEB-DL 720p, 1080p) [ 3.27 GB ] Ужас Амитивилля: Пробуждение / Amityville: The Awakening [2017 WEB-DL 1080p] bober100 Скачать
2 | 0

28-11-2019 20:33  

Отключить всю рекламу на сайте

    Дорогой пользователь! Огромная просьба, поблагодарите релизера, оцените раздачу и оставьте свои комментарий, если Вы скачали Пробуждённая через торрент бесплатно! Внесите свою лепту в развитие PiratBit!
    Комментировать посты могут только пользователи прошедшие не сложную регистрацию
    Показать сообщения:    

    Пробуждённая через торрент
    Скачать бесплатно Пробуждённая
    Пробуждённая скачать торрент
    Пробуждённая смотреть онлайн
    Cкачать фильм Пробуждённая бесплатно
    Пробуждённая скачать торрент в хорошем качестве
    Пробуждённая смотреть онлайн бесплатно в хорошем качестве


    Вы не можете начинать темы
    Вы не можете отвечать на сообщения
    Вы не можете редактировать свои сообщения
    Вы не можете удалять свои сообщения
    Вы не можете голосовать в опросах
    Вы не можете прикреплять файлы к сообщениям
    Вы можете скачивать файлы