Ссылка на приватное зеркало нашего сайта всего за 1$. Внимание количество ограничено!!!

2 сезон

iTunes

1 сезон

1

2 сезон

2 сезон

iTunes

1 сезон

RePack

30

Ultimate

ВАЖНО

ИГРА 18+

pack

RePack

MK11
pack

Забери бонус

RePack

jed

!!Акция!!

Alien_Rage

RePack

fifa19

RePack

Assassins Creed: Odyssey

RePack

NEED FOR SPEED™ PAYBACK

4 сезон

9 сезон

Бесстыжие 9 сезон

Все сериалы

все сериалы на PB.wtf

RePack

FAR CRY 5
  

Трагедия в Уэйко / Waco / Сезон: 1 / Серии: 1-6 из 6 (Джон Эрик Даудл, Дэнни Гордон) [2018, триллер, драма, криминал, WEBRip 720p] MVO [Jaskier] pb.wtf

Трагедия в Уэйко через торрент pb.wtf

Размер: 6.08 GB | Добавлен: 2 года 4 мес. назад | Торрент скачан:82 раза
Скачать  

12-07-2018 05:36 Трагедия в Уэйко Скачать торрент  

Трагедия в Уэйко / Waco
Год выпуска: 2018
Страна: США
Жанр: триллер, драма, криминал
Продолжительность: ~ 00:45:00
Перевод: Профессиональный многоголосый | Jaskier
Субтитры: отсутствуют

Режиссер: Джон Эрик Даудл, Дэнни Гордон

rating

В ролях:

Тейлор Китч, Майкл Шеннон, Демор Барнс, Мелисса Бенойст, Рори Калкин, Дункан Джойнер, Джон Легуизамо, Анника Маркс, Андреа Райзборо, Пол Спаркс

Описание:

Минисериал основан на трагических событиях весны 1993 года, когда жители ранчо «Маунт Кармел» были заподозрены в незаконном хранении оружия. В ходе облавы завязалась перестрелка, которая привела к вооруженному противостоянию между сектантами и агентами ФБР, продлившемуся 51 день. За время осады погибли 82 члена секты, в том числе и сам Кореш, а также 4 федеральных агента.

Качество: WEBRip 720p
Формат: MKV
Видео кодек: H.264
Аудио кодек: AC3

Видео: 1280x720 (16:9) | X264 | ~3317 kbps | 23.976 fps
Аудио#1: AC3, 48,0 КГц, 2 ch, 192 kbps - [RUS]
Аудио#2: AC3, 48,0 КГц, 2 ch, 192 kbps - [ENG]
скриншот  скриншот  скриншот  

Общее
Уникальный идентификатор : 254347725058230925908569262694453943903 (0xBF59970A15E0862027F482B3239F1E5F)
Полное имя : F:\Jaskier\Waco Season 1 (WEBRip l 720p l Jaskier)\Waco.S01E01.WEBRip.720p.Jaskier.mkv
Формат : Matroska
Версия формата : Version 4 / Version 2
Размер файла : 1,24 Гбайт
Продолжительность : 47 м. 55 с.
Общий поток : 3702 Кбит/сек
Дата кодирования : UTC 2018-02-01 14:57:03
Программа кодирования : mkvmerge v19.0.0 ('Brave Captain') 64-bit
Библиотека кодирования : libebml v1.3.5 + libmatroska v1.4.8

Видео
Идентификатор : 1
Формат : AVC
Формат/Информация : Advanced Video Codec
Профиль формата : High@L4.1
Настройки формата : CABAC / 9 Ref Frames
Параметр CABAC формата : Да
Параметр RefFrames формата : 9 кадров
Идентификатор кодека : V_MPEG4/ISO/AVC
Продолжительность : 47 м. 55 с.
Битрейт : 3317 Кбит/сек
Ширина : 1280 пикселей
Высота : 720 пикселей
Соотношение сторон : 16:9
Режим частоты кадров : Постоянный
Частота кадров : 23,976 (23976/1000) кадра/сек
Частота кадров в оригинале : 23,976 (24000/1001) кадра/сек
Цветовое пространство : YUV
Субдискретизация насыщенности : 4:2:0
Битовая глубина : 8 бит
Тип развёртки : Прогрессивная
Бит/(Пиксели*Кадры) : 0.150
Размер потока : 1,11 Гбайт (90%)
Язык : English
Default : Нет
Forced : Нет

Аудио #1
Идентификатор : 2
Формат : AC-3
Формат/Информация : Audio Coding 3
Идентификатор кодека : A_AC3
Продолжительность : 47 м. 55 с.
Вид битрейта : Постоянный
Битрейт : 192 Кбит/сек
Каналы : 2 канала
Расположение каналов : Front: L R
Частота : 48,0 КГц
Частота кадров : 31,250 кадров/сек (1536 SPF)
Битовая глубина : 16 бит
Метод сжатия : С потерями
Задержка видео : -200 мс.
Размер потока : 65,8 Мбайт (5%)
Заголовок : Jaskier
Язык : Russian
ServiceKind/String : Complete Main
Default : Да
Forced : Нет

Аудио #2
Идентификатор : 3
Формат : AC-3
Формат/Информация : Audio Coding 3
Идентификатор кодека : A_AC3
Продолжительность : 47 м. 55 с.
Вид битрейта : Постоянный
Битрейт : 192 Кбит/сек
Каналы : 2 канала
Расположение каналов : Front: L R
Частота : 48,0 КГц
Частота кадров : 31,250 кадров/сек (1536 SPF)
Битовая глубина : 16 бит
Метод сжатия : С потерями
Задержка видео : -200 мс.
Размер потока : 65,8 Мбайт (5%)
Язык : English
ServiceKind/String : Complete Main
Default : Нет
Forced : Нет

pb.wtf



Скачать Трагедия в Уэйко через торрент http://i101.fastpic.ru/big/2018/0201/53/8f9501778fd98dc015d98ca7ae53c553.png Скачать фильм Трагедия в Уэйко через торрент бесплантно в хорошем качестве Описание: Минисериал основан на трагических событиях весны 1993 года, когда жители ранчо «Маунт Кармел» были заподозрены в незаконном ... 10 10 2
Торрент: Зарегистрирован [2018-07-12 05:36] · скачан: 82 раз
Статус: √ проверено
Размер: 6.08 GB
Как cкачать? Как скачать Трагедия в Уэйко через торрент | qTorrent

% Раздел Тема Автор DL S | L
Зарубежные сериалы [ 15.87 GB ] Трагедия в Уэйко / Waco / Сезон: 1 / Серия: 1-6 из 6 [2018 WEB-DL 1080p] DVO [Кубик в Кубе] bober100 Скачать
1 | 0
Зарубежные сериалы [ 15.86 GB ] Трагедия в Уэйко / Waco / Сезон: 1 / Серии: 1-6 из 6 [2018 WEBRip 1080p] MVO [Jaskier] bober100 Скачать
1 | 0
Зарубежные сериалы [ 3.62 GB ] Трагедия в Уэйко / Waco / Сезон: 1 / Серии: 1-6 из 6 [2018 WEBRip] MVO [Jaskier] bober100 Скачать
1 | 0
Зарубежные сериалы [ 15.94 GB ] Трагедия в Уэйко / Waco / Сезон: 1 / Серии 1-6 из 6 [2018 WEB-DL 1080p] [MVO] killermax2013 Скачать
1 | 1
Зарубежные сериалы [ 15.89 GB ] Трагедия в Уэйко / Waco / Сезон: 1 / Серия: 1-6 из 6 [2018 WEB-DL 1080p] MVO [NewStudio] bober100 Скачать
1 | 0
Зарубежные сериалы [ 5.8 GB ] Трагедия в Уэйко / Waco / Сезон: 1 / Серии: 1-6 из 6 [2018 WEB-DL 720p] MVO [NewStudio] bober100 Скачать
3 | 0
Зарубежные сериалы [ 3.63 GB ] Трагедия в Уэйко / Waco / Сезон: 1 / Серии: 1-6 из 6 [2018 WEB-DLRip] MVO [NewStudio] bober100 Скачать
1 | 0

28-11-2019 20:33  

Отключить всю рекламу на сайте

    Дорогой пользователь! Огромная просьба, поблагодарите релизера, оцените раздачу и оставьте свои комментарий, если Вы скачали Трагедия в Уэйко через торрент бесплатно! Внесите свою лепту в развитие PiratBit!
    Комментировать посты могут только пользователи прошедшие не сложную регистрацию
    Показать сообщения:    

    Трагедия в Уэйко через торрент
    Скачать бесплатно Трагедия в Уэйко
    Трагедия в Уэйко скачать торрент
    Трагедия в Уэйко смотреть онлайн
    Cкачать фильм Трагедия в Уэйко бесплатно
    Трагедия в Уэйко скачать торрент в хорошем качестве
    Трагедия в Уэйко смотреть онлайн бесплатно в хорошем качестве


    Вы не можете начинать темы
    Вы не можете отвечать на сообщения
    Вы не можете редактировать свои сообщения
    Вы не можете удалять свои сообщения
    Вы не можете голосовать в опросах
    Вы не можете прикреплять файлы к сообщениям
    Вы можете скачивать файлы