Ссылка на приватное зеркало нашего сайта всего за 1$. Внимание количество ограничено!!!

2 сезон

iTunes

1 сезон

1

2 сезон

2 сезон

iTunes

1 сезон

RePack

30

Ultimate

ВАЖНО

ИГРА 18+

pack

RePack

MK11
pack

Забери бонус

RePack

jed

!!Акция!!

Alien_Rage

RePack

fifa19

RePack

Assassins Creed: Odyssey

RePack

NEED FOR SPEED™ PAYBACK

4 сезон

9 сезон

Бесстыжие 9 сезон

Все сериалы

все сериалы на PB.wtf

RePack

FAR CRY 5
  

Неоновый демон / The Neon Demon (Николас Виндинг Рефн) [2016, Ужасы, триллер, BD Remux 1080p] AVO [А.Матвеев] +DUB [iTunes] pb.wtf

Неоновый демон через торрент pb.wtf

Размер: 28.42 GB | Добавлен: 2 года 4 мес. назад | Торрент скачан:19 раз
Скачать  

12-07-2018 08:26 Неоновый демон Скачать торрент  

Неоновый демон / The Neon Demon
Год выпуска: 2016
Страна: Франция, Дания, США
Жанр: Ужасы, триллер
Продолжительность: 01:57:42
Перевод:

#1: Дублированный | iTunes
#2: Авторский одноголосый (закадровый) | А. Матвеев

Субтитры: Русские, английские

Режиссер: Николас Виндинг Рефн

rating

В ролях:

Киану Ривз, Элль Фэннинг, Карл Глусман, Джена Мэлоун, Белла Хиткот, Эбби Ли, Десмонд Хэррингтон, Кристина Хендрикс, Чарльз Бэйкер, Джеми Клейтон

Описание:

Провинциалка Джесси, мечтающая стать супермоделью, едва окончив школу, отправляется покорять Лос-Анджелес. Через тернии (одна, без денег, чужой город, дешевый мотель), но и через нужные знакомства, фотосессии, вечеринки — к звездам. И вот это сладкое слово «слава» становится былью для юной красавицы. Но за стремительный карьерный взлет придется расплатиться — конкурентки из ненависти и безумной зависти готовы на многое.

Качество: BD Remux 1080p
Формат: MKV

Видео: MPEG-4 AVC, 1920x1080, 29.7 Мbit/s, 23.976 fps
Аудио#1: 48 kHz, AC3, 5.1, 384 Kbps | Дублированный |
Аудио#2: 48 kHz, AC3, 5.1, 640 Kbps | Авторский одноголосый (закадровый) | А. Матвеев (без ценз.) |
Аудио#3: 48 kHz, AC3, 5.1, 640 Kbps | Авторский одноголосый (закадровый) | А. Матвеев (ценз.) |
Аудио#4: 48 kHz, DTS-HD MA, 5.1, 3186 kbps | Оригинал |
скриншот  скриншот  скриншот  скриншот  скриншот  

General
Unique ID : 253200991916741135343584038134561037544 (0xBE7CBCBAFB142426989CAFD35C26DCE8)
Complete name : H:VideoThe.Neon.Demon.2016.D.AVO.BDREMUX.1080p.ExKinoRay.mkv
Format : Matroska
Format version : Version 4 / Version 2
File size : 28.4 GiB
Duration : 1 h 57 min
Overall bit rate mode : Variable
Overall bit rate : 34.6 Mb/s
Movie name : build by ***селезень***
Encoded date : UTC 2016-11-07 23:13:26
Writing application : mkvmerge v8.3.0 ('Over the Horizon') 64bit
Writing library : libebml v1.3.1 + libmatroska v1.4.2

Video
ID : 1
Format : AVC
Format/Info : Advanced Video Codec
Format profile : High@L4.1
Format settings, CABAC : Yes
Format settings, ReFrames : 4 frames
Codec ID : V_MPEG4/ISO/AVC
Duration : 1 h 57 min
Bit rate mode : Variable
Bit rate : 29.7 Mb/s
Maximum bit rate : 38.0 Mb/s
Width : 1 920 pixels
Height : 1 080 pixels
Display aspect ratio : 16:9
Frame rate mode : Constant
Frame rate : 23.976 (24000/1001) FPS
Color space : YUV
Chroma subsampling : 4:2:0
Bit depth : 8 bits
Scan type : Progressive
Bits/(Pixel*Frame) : 0.598
Stream size : 24.4 GiB (86%)
Language : English
Default : Yes
Forced : No

Audio #1
ID : 2
Format : AC-3
Format/Info : Audio Coding 3
Mode extension : CM (complete main)
Format settings, Endianness : Big
Codec ID : A_AC3
Duration : 1 h 57 min
Bit rate mode : Constant
Bit rate : 384 kb/s
Channel(s) : 6 channels
Channel positions : Front: L C R, Side: L R, LFE
Sampling rate : 48.0 kHz
Frame rate : 31.250 FPS (1536 spf)
Bit depth : 16 bits
Compression mode : Lossy
Stream size : 323 MiB (1%)
Title : iTunes
Language : Russian
Default : Yes
Forced : No

Audio #2
ID : 3
Format : AC-3
Format/Info : Audio Coding 3
Mode extension : CM (complete main)
Format settings, Endianness : Big
Codec ID : A_AC3
Duration : 1 h 57 min
Bit rate mode : Constant
Bit rate : 640 kb/s
Channel(s) : 6 channels
Channel positions : Front: L C R, Side: L R, LFE
Sampling rate : 48.0 kHz
Frame rate : 31.250 FPS (1536 spf)
Bit depth : 16 bits
Compression mode : Lossy
Delay relative to video : 6 s 500 ms
Stream size : 538 MiB (2%)
Title : AVO [Matveev] no.cens
Language : Russian
Default : No
Forced : No

Audio #3
ID : 4
Format : AC-3
Format/Info : Audio Coding 3
Mode extension : CM (complete main)
Format settings, Endianness : Big
Codec ID : A_AC3
Duration : 1 h 57 min
Bit rate mode : Constant
Bit rate : 640 kb/s
Channel(s) : 6 channels
Channel positions : Front: L C R, Side: L R, LFE
Sampling rate : 48.0 kHz
Frame rate : 31.250 FPS (1536 spf)
Bit depth : 16 bits
Compression mode : Lossy
Delay relative to video : 6 s 500 ms
Stream size : 538 MiB (2%)
Title : AVO [Matveev] cens.
Language : Russian
Default : No
Forced : No

Audio #4
ID : 5
Format : DTS
Format/Info : Digital Theater Systems
Format profile : MA / Core
Mode : 16
Format settings, Endianness : Big
Codec ID : A_DTS
Duration : 1 h 57 min
Bit rate mode : Variable / Constant
Bit rate : 3 186 kb/s / 1 509 kb/s
Channel(s) : 6 channels
Channel positions : Front: L C R, Side: L R, LFE
Sampling rate : 48.0 kHz
Frame rate : 93.750 FPS (512 spf)
Bit depth : 24 bits
Compression mode : Lossless / Lossy
Stream size : 2.62 GiB (9%)
Title : Original
Language : English
Default : No
Forced : No

Text #1
ID : 6
Format : UTF-8
Codec ID : S_TEXT/UTF8
Codec ID/Info : UTF-8 Plain Text
Duration : 1 h 47 min
Bit rate : 27 b/s
Count of elements : 641
Stream size : 21.7 KiB (0%)
Title : Full
Language : Russian
Default : No
Forced : No

Text #2
ID : 7
Format : UTF-8
Codec ID : S_TEXT/UTF8
Codec ID/Info : UTF-8 Plain Text
Duration : 1 h 44 min
Bit rate : 19 b/s
Count of elements : 618
Stream size : 15.2 KiB (0%)
Title : Full
Language : English
Default : No
Forced : No

Text #3
ID : 8
Format : UTF-8
Codec ID : S_TEXT/UTF8
Codec ID/Info : UTF-8 Plain Text
Duration : 1 h 45 min
Bit rate : 22 b/s
Count of elements : 729
Stream size : 17.6 KiB (0%)
Title : SDH
Language : English
Default : No
Forced : No

Menu
00:00:00.000 : en:00:00:00.000
00:07:27.822 : en:00:07:27.822
00:15:43.901 : en:00:15:43.901
00:21:05.931 : en:00:21:05.931
00:26:36.637 : en:00:26:36.637
00:30:33.915 : en:00:30:33.915
00:36:39.656 : en:00:36:39.656
00:43:15.843 : en:00:43:15.843
00:50:39.328 : en:00:50:39.328
00:56:44.109 : en:00:56:44.109
01:04:59.604 : en:01:04:59.604
01:09:24.619 : en:01:09:24.619
01:17:38.862 : en:01:17:38.862
01:23:37.679 : en:01:23:37.679
01:31:53.800 : en:01:31:53.800
01:41:10.314 : en:01:41:10.314
01:47:28.734 : en:01:47:28.734
01:51:56.460 : en:01:51:56.460

pb.wtf



Скачать Неоновый демон через торрент http://pic1.kartinco.top/images/11/39ls9.jpg Скачать фильм Неоновый демон через торрент бесплантно в хорошем качестве Описание: Провинциалка Джесси, мечтающая стать супермоделью, едва окончив школу, отправляется покорять Лос-Анджелес. Через тернии (одна, ... 8.5 10 6
Info! Золотая раздача, скачанное не засчитывается.
Торрент: Зарегистрирован [2018-07-12 08:26] · скачан: 19 раз
Статус: √ проверено
Размер: 28.42 GB
Как cкачать? Как скачать Неоновый демон через торрент | qTorrent

% Раздел Тема Автор DL S | L
Ultra HD (UHD: 2K, 4K, 8K) — видео сверхвысокой чёткости [ 38.44 GB ] Неоновый демон / The Neon Demon [2016 UHD BDRemux 2160p] [SDR] 2xAVO+MVO+ bober100 Скачать
1 | 0
Фильмы 2016 [DVDrip, WEB-DLRip, HDrip] (DUB, MVO) [ 2.06 GB ] Неоновый демон / The Neon Demon [2016 HDRip] killermax2013 Скачать
1 | 0
Фильмы без перевода [ 27.26 GB ] Неоновый демон / The Neon Demon [2016 BD Remux] [Оригинал] smaster Скачать
1 | 0
Фильмы с авторской озвучкой [ 1.46 GB ] Неоновый демон / The Neon Demon [2016 BDRip] Авторский [Алексей Матвеев] Twi7ter Скачать
1 | 0
T Фильмы без перевода [ 5.46 GB ] Неоновый демон / The Neon Demon [2016 BDRip 720p] [Оригинал] smaster Скачать
1 | 0
T Фильмы без перевода [ 8.74 GB ] Неоновый демон / The Neon Demon [2016 BDRip 1080p] [Оригинал] smaster Скачать
1 | 0
Фильмы с авторской озвучкой [ 2.19 GB ] Неоновый демон / The Neon Demon [2016 WEB-DLRip Авторский одноголосый "А.Матвеев"] coc900 Скачать
1 | 0

28-11-2019 20:33  

Отключить всю рекламу на сайте

    Дорогой пользователь! Огромная просьба, поблагодарите релизера, оцените раздачу и оставьте свои комментарий, если Вы скачали Неоновый демон через торрент бесплатно! Внесите свою лепту в развитие PiratBit!
    Комментировать посты могут только пользователи прошедшие не сложную регистрацию
    Показать сообщения:    

    Неоновый демон через торрент
    Скачать бесплатно Неоновый демон
    Неоновый демон скачать торрент
    Неоновый демон смотреть онлайн
    Cкачать фильм Неоновый демон бесплатно
    Неоновый демон скачать торрент в хорошем качестве
    Неоновый демон смотреть онлайн бесплатно в хорошем качестве


    Вы не можете начинать темы
    Вы не можете отвечать на сообщения
    Вы не можете редактировать свои сообщения
    Вы не можете удалять свои сообщения
    Вы не можете голосовать в опросах
    Вы не можете прикреплять файлы к сообщениям
    Вы можете скачивать файлы